<?xml version="1.0" standalone="no"?>
<!DOCTYPE svg PUBLIC "-//W3C//DTD SVG 1.1//EN" "http://www.w3.org/Graphics/SVG/1.1/DTD/svg11.dtd" >
<svg xmlns="http://www.w3.org/2000/svg">
<metadata>Generated by IcoMoon</metadata>
<defs>
<font id="play-icons" horiz-adv-x="1024">
<font-face units-per-em="1024" ascent="960" descent="-64" />
<missing-glyph horiz-adv-x="1024" />
<glyph unicode="&#x20;" horiz-adv-x="512" d="" />
<glyph unicode="&#xe900;" glyph-name="User-1" d="M919.055 99.122c0-32.129-26.047-58.176-58.105-58.176h-697.9c-32.129 0-58.105 26.047-58.105 58.176v50.233c0 64.903 43.006 121.934 105.404 139.752l127.014 36.28c30.984-20.251 91.236-51.808 174.672-51.808 83.364 0 143.616 31.557 174.6 51.808l126.943-36.28c62.47-17.818 105.476-74.849 105.476-139.752v-50.233zM512.036 855.055c144.474 0 261.614-117.14 261.614-261.686 0-144.474-117.14-261.686-261.614-261.686-144.546 0-261.757 117.211-261.757 261.686 0 144.546 117.211 261.686 261.757 261.686v0zM829.608 345.136l-88.445 25.188c83.078 85.296 90.663 183.831 90.663 223.045 0 176.604-143.115 319.862-319.79 319.862-176.604 0-319.862-143.043-319.862-319.862 0-39.285 7.514-137.748 90.592-223.045l-88.373-25.188c-112.202-32.129-147.623-134.242-147.623-195.781v-50.233c0-64.115 52.165-116.352 116.281-116.352h697.9c64.044 0 116.281 52.237 116.281 116.352v50.233c0 60.323-34.491 163.366-147.623 195.781v0z" />
<glyph unicode="&#xe901;" glyph-name="search-small" horiz-adv-x="939" d="M874.667-51.2l-217.6 221.867c-68.267-46.933-145.067-68.267-226.133-68.267-226.133 0-409.6 187.733-409.6 418.133s183.467 418.133 409.6 418.133c226.133 0 409.6-187.733 409.6-418.133 0-115.2-46.933-226.133-128-302.933l209.067-213.333-46.933-55.467zM426.667 861.867c-183.467 0-337.067-153.6-337.067-345.6 0-187.733 149.333-341.333 337.067-341.333 183.467 0 337.067 153.6 337.067 341.333 0 192-149.333 345.6-337.067 345.6z" />
<glyph unicode="&#xe902;" glyph-name="seek-forward" horiz-adv-x="1134" d="M985.049 423.017l-300.987-154.657 86.846-55.915c-69.001-82.087-170.123-129.674-278.383-129.674-202.244 0-366.419 164.175-366.419 366.419s164.175 366.419 366.419 366.419v126.105c-271.245 0-492.525-221.279-492.525-492.525s221.279-492.525 492.525-492.525c151.088 0 292.66 69.001 385.454 185.589l91.605-59.484 15.466 340.246zM659.079 541.984v80.898h55.915v52.346h-55.915v76.139h-52.346v-77.329h-57.104v-52.346h57.104v-80.898h52.346v1.19zM867.272 513.432v287.901h-5.948l-104.691-42.828v-46.397l54.725 21.414v-220.090h55.915zM1030.257 509.863c26.173 0 47.587 10.707 61.863 32.121s21.414 51.156 21.414 91.605v0 52.346c0 38.070-7.138 67.811-21.414 89.225-14.276 20.224-34.501 30.931-61.863 30.931s-47.587-10.707-61.863-30.931c-14.276-21.414-21.414-51.156-21.414-90.415v0-54.725c0-38.070 8.328-67.811 22.604-88.036s34.501-32.121 60.673-32.121zM1030.257 556.26c-9.517 0-16.655 5.948-21.414 16.655s-7.138 28.552-7.138 51.156v0 71.38c1.19 41.639 9.517 61.863 27.362 61.863 9.517 0 16.655-5.948 21.414-16.655 4.759-11.897 7.138-28.552 7.138-51.156v0-69.001c0-21.414-2.379-38.070-7.138-48.777s-11.897-15.466-20.224-15.466z" />
<glyph unicode="&#xe903;" glyph-name="seek-backward" horiz-adv-x="1134" d="M149.15 423.017l300.987-154.657-86.846-55.915c69.001-80.898 170.123-128.485 278.383-128.485 202.244 0 366.419 164.175 366.419 366.419s-164.175 365.23-366.419 365.23v126.105c271.245 0 492.525-221.279 492.525-492.525s-221.279-491.335-492.525-491.335c-151.088 0-292.66 69.001-385.454 185.589l-91.605-59.484-15.466 339.057zM114.649 613.365v46.397h-96.364v-46.397h96.364zM280.014 513.432v287.901h-5.948l-104.691-42.828v-46.397l54.725 21.414v-220.090h55.915zM442.999 509.863c26.173 0 47.587 10.707 61.863 32.121s21.414 51.156 21.414 91.605v0 52.346c0 38.070-7.138 67.811-21.414 89.225-14.276 20.224-34.501 30.931-61.863 30.931s-47.587-10.707-61.863-30.931c-14.276-20.224-21.414-51.156-21.414-90.415v0-54.725c0-38.070 8.328-67.811 22.604-88.036s33.311-32.121 60.673-32.121zM442.999 556.26c-9.517 0-16.655 5.948-21.414 16.655s-7.138 28.552-7.138 51.156v0 71.38c1.19 41.639 9.517 61.863 27.362 61.863 9.517 0 16.655-5.948 21.414-16.655 4.759-11.897 7.138-28.552 7.138-51.156v0-69.001c0-21.414-2.379-38.070-7.138-48.777s-11.897-15.466-20.224-15.466z" />
<glyph unicode="&#xe904;" glyph-name="restart" horiz-adv-x="914" d="M290.558 692.606v-85.343l-290.558 165.653 290.558 165.653v-85.343l-141.031-80.31 141.031-80.31zM498.495 828.693v113.021l-290.558-165.653 290.558-165.653v106.311c172.145-25.916 293.49-180.511 275.937-351.55s-167.841-298.464-341.753-289.766c-173.912 8.699-310.385 150.468-310.339 322.381h-112.145c0-233.166 186.775-424.585 422.788-433.317s436.769 168.352 454.452 400.863c17.683 232.511-154.040 437.203-388.727 463.361h-0.212z" />
<glyph unicode="&#xe905;" glyph-name="fullscreen" d="M159.347 306.939h-141.061v-352.653h352.653v141.061h-211.592v211.592zM18.286 589.061h141.061v211.592h211.592v141.061h-352.653v-352.653zM864.653 95.347h-211.592v-141.061h352.653v352.653h-141.061v-211.592zM653.061 941.714v-141.061h211.592v-211.592h141.061v352.653h-352.653z" />
<glyph unicode="&#xe906;" d="M113.664 960h796.672c62.775 0 113.664-50.889 113.664-113.664v-796.672c0-62.775-50.889-113.664-113.664-113.664h-796.672c-62.775 0-113.664 50.889-113.664 113.664v796.672c0 62.775 50.889 113.664 113.664 113.664z" />
<glyph unicode="&#xe907;" glyph-name="favourite" d="M980.8 566.4c0 137.6-108.8 249.6-244.8 249.6-88 0-164.8-48-208-120-43.2 72-120 120-208 120-136 0-244.8-112-244.8-249.6 0-70.4 33.6-124.8 73.6-177.6l356.8-363.2c6.4-6.4 12.8-9.6 22.4-9.6 6.4 0 12.8 3.2 17.6 6.4 0 0 3.2 3.2 3.2 3.2l358.4 363.2c41.6 52.8 73.6 108.8 73.6 177.6z" />
<glyph unicode="&#xe908;" d="M793.088 448c0-155.241-125.847-281.088-281.088-281.088s-281.088 125.847-281.088 281.088c0 155.241 125.847 281.088 281.088 281.088s281.088-125.847 281.088-281.088z" />
<glyph unicode="&#xe909;" glyph-name="facebook" horiz-adv-x="512" d="M148.784-27.655v441.746h-148.773v175.543h148.773v138.313c0 150.272 92.343 232.046 227.145 232.046 64.622 0 120.064-4.827 136.192-6.949v-157.038h-93.513c-73.326 0-87.479-34.706-87.479-85.394v-120.978h165.449l-22.674-175.543h-142.775v-441.746z" />
<glyph unicode="&#xe90a;" glyph-name="checkbox" d="M910.336 883.2c20.301-0.144 36.72-16.563 36.864-36.85v-796.43c-0.144-20.301-16.563-36.72-36.85-36.864h-796.43c-20.301 0.144-36.72 16.563-36.864 36.85v796.43c0.144 20.301 16.563 36.72 36.85 36.864h796.43zM910.336 960h-796.416c-62.775 0-113.664-50.889-113.664-113.664v-796.416c0-62.775 50.889-113.664 113.664-113.664h796.416c62.775 0 113.664 50.889 113.664 113.664v796.416c0 62.775-50.889 113.664-113.664 113.664z" />
<glyph unicode="&#xe90b;" glyph-name="close" horiz-adv-x="1021" d="M1002.039 941.176c-11.341 11.276-26.974 18.246-44.235 18.246s-32.894-6.97-44.238-18.249l-415.37-417.252-390.902 390.902c-11.576 13.46-28.628 21.932-47.658 21.932-34.653 0-62.745-28.092-62.745-62.745 0-19.030 8.472-36.081 21.849-47.588l390.985-390.971-390.275-392.157c-11.268-11.345-18.231-26.977-18.231-44.235 0-34.673 28.108-62.78 62.78-62.78 17.414 0 33.173 7.090 44.546 18.542l389.651 391.533 390.902-390.902c10.9-9.377 25.19-15.087 40.813-15.087 34.653 0 62.745 28.092 62.745 62.745 0 15.623-5.71 29.913-15.157 40.896l-390.832 390.819 416 417.882c11.090 11.308 17.934 26.815 17.934 43.92 0 17.418-7.097 33.178-18.558 44.547z" />
<glyph unicode="&#xe90c;" glyph-name="list" d="M162.909 843.636h-139.636c-12.853 0-23.273-10.42-23.273-23.273v-116.364h162.909c12.853 0 23.273 10.42 23.273 23.273v93.091c0 12.853-10.42 23.273-23.273 23.273zM162.909 517.818h-139.636c-12.853 0-23.273-10.42-23.273-23.273v-116.364h162.909c12.853 0 23.273 10.42 23.273 23.273v93.091c0 12.853-10.42 23.273-23.273 23.273zM162.909 192h-139.636c-12.853 0-23.273-10.42-23.273-23.273v-116.364h162.909c12.853 0 23.273 10.42 23.273 23.273v93.091c0 12.853-10.42 23.273-23.273 23.273zM1000.727 843.636h-744.727c-12.853 0-23.273-10.42-23.273-23.273v-116.364h768c12.853 0 23.273 10.42 23.273 23.273v93.091c0 12.853-10.42 23.273-23.273 23.273zM1000.727 517.818h-744.727c-12.853 0-23.273-10.42-23.273-23.273v-116.364h768c12.853 0 23.273 10.42 23.273 23.273v93.091c0 12.853-10.42 23.273-23.273 23.273zM1000.727 192h-744.727c-12.853 0-23.273-10.42-23.273-23.273v-116.364h768c12.853 0 23.273 10.42 23.273 23.273v93.091c0 12.853-10.42 23.273-23.273 23.273z" />
<glyph unicode="&#xe90d;" glyph-name="view-list" d="M0 960h1024v-186.182h-1024v186.182zM0 541.091h1024v-186.182h-1024v186.182zM0 122.182h1024v-186.182h-1024v186.182z" />
<glyph unicode="&#xe90e;" glyph-name="device-laptop" d="M853.333 192c46.933 0 85.333 38.4 85.333 85.333v426.667c0 46.933-38.4 85.333-85.333 85.333h-682.667c-46.933 0-85.333-38.4-85.333-85.333v-426.667c0-46.933 38.4-85.333 85.333-85.333h-170.667v-85.333h1024v85.333h-170.667zM170.667 704h682.667v-426.667h-682.667v426.667z" />
<glyph unicode="&#xe90f;" glyph-name="device-box" d="M213.333 618.667c-46.933 0-85.333-38.4-85.333-85.333v-170.667c0-46.933 38.4-85.333 85.333-85.333h597.333c46.933 0 85.333 38.4 85.333 85.333v170.667c0 46.933-38.4 85.333-85.333 85.333h-597.333zM810.667 362.667h-597.333v170.667h597.333v-170.667zM256 490.667h85.333v-85.333h-85.333v85.333zM405.333 490.667h85.333v-85.333h-85.333v85.333z" />
<glyph unicode="&#xe910;" glyph-name="close-circle" d="M873.954 809.954c-92.662 92.704-220.696 150.046-362.124 150.046-282.77 0-512-229.23-512-512s229.23-512 512-512c141.427 0 269.461 57.342 362.122 150.044 93.46 92.253 151.348 220.344 151.348 361.956s-57.888 269.702-151.292 361.9zM812.093 147.907c-76.787-76.846-182.898-124.38-300.112-124.38-234.309 0-424.254 189.945-424.254 424.254s189.945 424.254 424.254 424.254c117.214 0 223.325-47.534 300.109-124.378 77.216-76.45 125.026-182.471 125.026-299.659 0-117.405-47.987-223.601-125.417-300.046zM576.932 444.929l118.019 118.896c7.879 7.933 12.748 18.863 12.748 30.931 0 24.244-19.654 43.898-43.898 43.898-12.177 0-23.195-4.958-31.148-12.965l-117.583-118.899-118.019 118.019c-7.622 6.557-17.613 10.55-28.538 10.55-24.23 0-43.873-19.643-43.873-43.873 0-10.924 3.993-20.916 10.598-28.595l118.409-118.4-118.019-118.896c-7.879-7.933-12.748-18.863-12.748-30.931 0-24.244 19.654-43.898 43.898-43.898 12.177 0 23.195 4.958 31.148 12.965l117.583 118.899 118.019-118.019c7.622-6.557 17.613-10.55 28.538-10.55 24.23 0 43.873 19.643 43.873 43.873 0 10.924-3.993 20.916-10.598 28.595z" />
<glyph unicode="&#xe911;" glyph-name="view-grid" d="M0 960h186.182v-186.182h-186.182v186.182zM418.909 960h186.182v-186.182h-186.182v186.182zM837.818 960h186.182v-186.182h-186.182v186.182zM0 541.091h186.182v-186.182h-186.182v186.182zM418.909 541.091h186.182v-186.182h-186.182v186.182zM837.818 541.091h186.182v-186.182h-186.182v186.182zM0 122.182h186.182v-186.182h-186.182v186.182zM418.909 122.182h186.182v-186.182h-186.182v186.182zM837.818 122.182h186.182v-186.182h-186.182v186.182z" />
<glyph unicode="&#xe912;" glyph-name="settings" d="M616.363 444.544c0.704 4.48 1.067 9.024 1.067 13.547-0.102 5.012-0.487 9.825-1.139 14.553l0.073-0.644 29.931 23.232c1.572 1.331 2.564 3.307 2.564 5.514 0 1.341-0.366 2.596-1.004 3.672l0.018-0.033-28.16 48.576c-1.247 2.089-3.495 3.466-6.065 3.466-0.919 0-1.796-0.176-2.601-0.496l0.048 0.017-35.2-14.080c-6.836 5.519-14.678 10.195-23.137 13.68l-0.629 0.229-4.928 37.312c-0.679 3.321-3.569 5.787-7.038 5.803h-56.322c-3.519-0.032-6.433-2.58-7.033-5.93l-0.007-0.044-5.12-37.333c-9.070-3.732-16.899-8.34-23.96-13.881l0.216 0.163-35.2 14.080c-0.757 0.303-1.635 0.479-2.553 0.479-2.57 0-4.819-1.377-6.048-3.434l-0.018-0.032-28.16-48.576c-0.619-1.042-0.985-2.297-0.985-3.638 0-2.207 0.991-4.182 2.553-5.505l0.011-0.009 30.080-23.232c-0.853-4.587-1.259-9.237-1.216-13.909-0.256-4.565-0.256-9.152 0-13.717l-29.739-23.253c-1.501-1.328-2.443-3.259-2.443-5.409 0-1.375 0.385-2.66 1.053-3.753l-0.018 0.032 28.16-48.576c1.749-2.987 5.355-4.331 8.619-3.179l35.2 14.080c7.211-5.717 15.211-10.325 23.765-13.717l5.803-37.333c0.597-3.413 3.563-5.931 7.040-5.973h56.32c3.547 0.12 6.451 2.724 7.034 6.122l0.006 0.044 5.12 37.312c9.079 3.716 16.914 8.392 23.924 14.050l-0.18-0.141 35.2-14.080c0.757-0.303 1.635-0.479 2.553-0.479 2.57 0 4.819 1.377 6.048 3.434l0.018 0.032 28.16 48.576c0.619 1.042 0.985 2.297 0.985 3.638 0 2.207-0.991 4.182-2.553 5.505l-0.011 0.009-30.080 23.232zM512 417.963c-22.162 0-40.128 17.966-40.128 40.128v0c0 22.162 17.966 40.128 40.128 40.128s40.128-17.966 40.128-40.128v0c-0.012-22.153-17.973-40.107-40.128-40.107v0zM793.6 736h-563.2c-38.881 0-70.4-31.519-70.4-70.4v0-633.6l140.8 140.8h492.8c38.881 0 70.4 31.519 70.4 70.4v0 422.4c0 38.881-31.519 70.4-70.4 70.4v0zM793.6 243.2h-522.027l-41.173-41.173v463.573h563.2v-422.4z" />
<glyph unicode="&#xe913;" glyph-name="gear" d="M512 549.386c-55.994 0-101.386-45.392-101.386-101.386s45.392-101.386 101.386-101.386c55.994 0 101.386 45.392 101.386 101.386s-45.392 101.386-101.386 101.386zM941.877 549.386h-53.397c-9.266 34.071-21.733 63.831-37.5 91.463l49.329 46.422c14.896 14.867 24.112 35.421 24.112 58.128s-9.216 43.261-24.11 58.127l-29.065 29.065c-14.867 14.896-35.421 24.112-58.128 24.112s-43.261-9.216-58.127-24.11l-47.315-47.315c-26.723 15.833-57.599 29.102-90.21 38.214l-2.727 55.737c0 45.355-36.768 82.123-82.123 82.123 0 0 0 0 0 0h-40.892c0 0 0 0 0 0-45.355 0-82.123-36.768-82.123-82.123 0 0 0 0 0 0v-55.086c-35.343-9.785-66.217-23.053-94.76-39.857l-45.491 48.306c-14.867 14.896-35.421 24.112-58.128 24.112s-43.261-9.216-58.127-24.11l-29.065-29.065c-14.896-14.867-24.112-35.421-24.112-58.128s9.216-43.261 24.11-58.127l48.329-48.329c-14.786-25.73-27.254-55.491-35.865-86.849l-54.031-2.709c0 0 0 0 0 0-45.355 0-82.123-36.768-82.123-82.123 0 0 0 0 0 0v-40.892c0-45.355 36.768-82.123 82.123-82.123 0 0 0 0 0 0h54.073c9.555-34.337 22.356-64.306 38.507-92.087l-51.012-48.164c-14.896-14.867-24.112-35.421-24.112-58.128s9.216-43.261 24.11-58.127l29.065-29.065c14.867-14.896 35.421-24.112 58.128-24.112s43.261 9.216 58.127 24.11l50.356 50.356c25.823-14.883 55.69-27.46 87.157-36.189l2.739-53.369c0-45.355 36.768-82.123 82.123-82.123 0 0 0 0 0 0h40.892c0 0 0 0 0 0 45.355 0 82.123 36.768 82.123 82.123 0 0 0 0 0 0v52.721c34.202 9.36 64.070 21.938 91.79 37.838l48.461-51.356c14.867-14.896 35.421-24.112 58.128-24.112s43.261 9.216 58.127 24.11l29.065 29.065c14.896 14.867 24.112 35.421 24.112 58.128s-9.216 43.261-24.11 58.127l-50.018 50.018c15.185 25.932 27.988 55.903 36.862 87.519l55.061 2.715c0 0 0 0 0 0 45.355 0 82.123 36.768 82.123 82.123 0 0 0 0 0 0v40.892c-0.76 44.77-37.232 80.772-82.112 80.772-0.123 0-0.245 0-0.368-0.001zM512 219.543c-124.68 0-225.753 101.073-225.753 225.753s101.073 225.753 225.753 225.753c124.68 0 225.753-101.073 225.753-225.753 0.003-0.402 0.004-0.877 0.004-1.352 0-124.68-101.073-225.753-225.753-225.753-0.001 0-0.003 0-0.004 0z" />
<glyph unicode="&#xe914;" glyph-name="device-phone-android" d="M682.667 917.333h-341.333c-70.827 0-128-57.173-128-128v-682.667c0-70.827 57.173-128 128-128h341.333c70.827 0 128 57.173 128 128v682.667c0 70.827-57.173 128-128 128zM725.333 192h-426.667v597.333h426.667v-597.333zM597.333 64h-170.667v42.667h170.667v-42.667z" />
<glyph unicode="&#xe915;" glyph-name="icon-trailer" d="M768 789.333l85.333-170.667h-128l-85.333 170.667h-85.333l85.333-170.667h-128l-85.333 170.667h-85.333l85.333-170.667h-128l-85.333 170.667h-42.667c-46.933 0-84.907-38.4-84.907-85.333l-0.427-512c0-46.933 38.4-85.333 85.333-85.333h682.667c46.933 0 85.333 38.4 85.333 85.333v597.333h-170.667z" />
<glyph unicode="&#xe916;" glyph-name="settings1" d="M893.74 500.999l62 36.001c9.333 5.336 16.333 13.334 20.999 24.002 4.667 10.664 5.665 20.667 2.999 30-24.001 85.333-67.334 159.332-130 221.999-6.667 8-15.331 12.667-25.999 14s-21.332-0.667-32-6l-62-36c-21.333 14.667-43.333 51.333-66 38v72c0 12-3.332 22.333-9.999 31s-15.334 14.333-26.002 17c-85.333 22.667-170.666 22.667-255.998 0-10.667-2.667-19.333-8.333-26-17s-10-43-10-31v-72c-22.667-10.667-65.333-11.333-66-38l-62 36c-10.667 5.333-21.334 7.333-32 6s-19.333-6-26-14c-62.666-62.667-106-136.666-130-221.999-2.667-9.333-1.667-19.335 3-30 4.667-10.668 11.667-18.666 21-24.002l62-36.001c-1.333-25.332-22-62.664 0-75.999l-62-35.997c-9.333-5.336-16.333-13.334-21-24.002s-5.667-20.667-3-30c24-85.333 67.333-159.333 130-222 6.667-7.998 15.333-12.668 26-14 10.666-1.335 21.333 0.666 32 6.001l62 35.997c21.334-14.665 43.333-27.333 66-37.998v-72.002c0-11.999 3.333-22.334 10-30.998 6.667-8.667 15.333-14.336 26-17.002 85.332-22.667 170.665-22.667 255.998 0 10.668 2.666 19.335 8.335 26.002 17.002 6.667 8.664 9.999 18.999 9.999 30.998v72.002c22.667 10.664 44.668 23.333 66 37.998l62-35.997c10.668-5.336 21.332-7.336 32-6.001 10.668 1.331 19.332 6.001 25.999 14 62.666 62.666 106 136.666 130 222 2.666 9.333 1.668 19.332-2.999 30s-11.666 18.666-20.999 24.002l-62 35.997c1.331 25.334-290.487 203.668 0 75.999zM799.737 463.002c0-17.335-3.997-46.669-11.999-88.002l88.002-49.997q-24.002-64-68.001-118.001l-88.002 50q-47.996-40.002-71-52.999c-15.331-8.667-42.331-20.334-80.998-35.003v-99.997q-68.001-12.003-135.998 0v99.997q-58.001 22.001-81.001 35.003-23 12.997-71 52.999l-88-50q-44 54.001-68 118.001l88 49.997q-12 62-12 88.002 0 25.999 12 87.998l-88 50.001q24 64 68 118l88-50q48 40 71 53c15.333 8.667 42.334 20.333 81.001 35v99.999q67.997 12 135.998 0v-99.999c38.667-14.667 65.668-26.333 80.998-35q23.003-13 71-53l88.002 50q43.999-54 68.001-118l-88.002-50.001c8.002-41.333 11.999-70.667 11.999-87.998zM499.738 655.001c-53.333 0-98.666-18.667-135.998-56s-56-82.666-56-135.999c0-53.333 18.667-98.667 56-136.002 37.332-37.332 82.666-55.998 135.998-55.998 53.336 0 98.67 18.666 136.002 55.998 37.332 37.335 55.998 82.668 55.998 136.002s-18.666 98.666-55.998 135.999c-37.335 37.333-243.152 157.666-136.002 56zM567.739 395.001c-18.666-18.666-41.333-27.999-68.001-27.999q-39.998 0-67.997 27.999-28.003 27.999-28.003 68.001 0 39.998 28.003 68.001c18.666 18.666 41.333 27.999 67.997 27.999q40.002 0 68.001-27.999 27.999-28.003 27.999-68.001 0-40.002-27.999-68.001z" />
<glyph unicode="&#xe917;" d="M511.891-64c0 0 0 0 0 0-282.709 0-511.891 229.181-511.891 511.891s229.181 511.891 511.891 511.891c282.709 0 511.891-229.181 511.891-511.891-0.373-282.559-229.331-511.518-511.855-511.891zM511.891 897.297c0 0 0 0 0 0-248.080 0-449.188-201.108-449.188-449.188s201.108-449.188 449.188-449.188c248.080 0 449.188 201.108 449.188 449.188-0.373 247.93-201.258 448.815-449.152 449.188z" />
<glyph unicode="&#xe918;" d="M679.025 448.109c0-92.306-74.829-167.135-167.135-167.135s-167.135 74.829-167.135 167.135c0 92.306 74.829 167.135 167.135 167.135s167.135-74.829 167.135-167.135z" />
<glyph unicode="&#xe919;" glyph-name="record" d="M512 38.4c-226.202 0-409.6 183.398-409.6 409.6 0 226.236 183.398 409.6 409.6 409.6s409.6-183.364 409.6-409.6c0-226.202-183.398-409.6-409.6-409.6zM512 960c-282.761 0-512-229.239-512-512s229.239-512 512-512c282.795 0 512 229.239 512 512-0.068 282.726-229.274 511.898-512 512zM512 704c-141.38 0-256-114.586-256-256 0-141.38 114.62-256 256-256 141.414 0 256 114.62 256 256 0 141.414-114.586 256-256 256z" />
<glyph unicode="&#xe91a;" glyph-name="remind" d="M884.413 720.168l26.947-37.726 25.331 38.804c38.804 59.284 18.324 113.179-67.368 181.625-31.968 31.831-74.214 53.363-121.328 59.182-29.178-0.912-54.195-13.584-71.523-33.206l-33.507-33.521 44.194-17.785c81.113-33.636 148.042-87.74 196.317-155.976zM100.244 682.442l26.947 37.726c49.341 68.694 116.035 122.042 193.744 154.13l46.627 18.872-33.415 33.415c-17.421 19.728-42.438 32.401-70.428 33.41-47.669-5.536-89.509-26.291-121.498-57.182-85.632-67.849-107.729-122.283-67.308-181.567zM504.455 892.632c-0.087 0-0.189 0-0.291 0-243.777 0-441.398-197.621-441.398-441.398 0-127.59 54.135-242.536 140.689-323.122l-122.074-122.587c-7.184-5.876-11.734-14.741-11.734-24.669 0-17.561 14.236-31.798 31.798-31.798 9.928 0 18.793 4.549 24.624 11.677l127.236 127.248c70.129-49.533 157.384-79.172 251.561-79.172 96.144 0 185.074 30.89 257.406 83.287l129.147-131.307c5.424-4.439 12.43-7.129 20.064-7.129 17.561 0 31.798 14.236 31.798 31.798 0 7.634-2.69 14.64-7.174 20.121l-126.069 126.057c84.443 80.551 136.948 193.942 136.948 319.597 0 243.777-197.621 441.398-441.398 441.398-0.398 0-0.797-0.001-1.195-0.002zM504.455 71.815c-208.357 0-377.263 168.906-377.263 377.263s168.906 377.263 377.263 377.263c208.357 0 377.263-168.906 377.263-377.263s-168.906-377.263-377.263-377.263c0 0 0 0 0 0zM498.526 698.072c-0.376 0.012-0.818 0.019-1.262 0.019-19.587 0-36.045-13.396-40.713-31.525l-0.064-215.871h-153.6c-18.069-5.617-30.961-22.187-30.961-41.768s12.892-36.151 30.652-41.685l237.446-0.083v300.194c-5.108 17.871-21.297 30.732-40.489 30.732-0.355 0-0.709-0.004-1.062-0.013z" />
<glyph unicode="&#xe91b;" glyph-name="search" d="M1024-27.889l-351.307 351.307c59.016 67.286 95.020 156.034 95.020 253.191 0 212.54-172.298 384.838-384.838 384.838s-384.838-172.298-384.838-384.838c0-212.54 172.298-384.838 384.838-384.838 97.157 0 185.905 36.004 253.63 95.397l353.447-349.62zM147.023 340.957c-60.004 60.1-97.111 143.077-97.111 234.72 0 183.48 148.74 332.22 332.22 332.22s332.22-148.74 332.22-332.22c0-183.435-148.667-332.147-332.085-332.22-91.181 0.308-173.603 37.525-233.162 97.481z" />
<glyph unicode="&#xe91c;" glyph-name="volume1" horiz-adv-x="569" d="M0 623.143v-350.285h233.523l291.904-291.904v934.094l-291.904-291.904z" />
<glyph unicode="&#xe91d;" glyph-name="share" d="M803.109 225.89c-0.161 0.001-0.352 0.001-0.543 0.001-50.324 0-94.713-25.411-121.035-64.102l-295.824 235.499c-3.897 2.95-8.796 4.764-14.115 4.876 4.19 13.034 6.621 28.031 6.621 43.594 0 19.42-3.784 37.955-10.655 54.91 5.668-0.945 10.574 0.787 14.561 3.7l302.255 221.575c26.939-36.234 69.622-59.454 117.728-59.454 80.791 0 146.286 65.494 146.286 146.286s-65.494 146.286-146.286 146.286c-80.791 0-146.286-65.494-146.286-146.286 0-15.236 2.329-29.927 6.651-43.738l-0.28 1.036-308.419-226.255c-2.662-1.975-4.863-4.409-6.521-7.202-27.092 33.832-68.416 55.399-114.777 55.399-80.791 0-146.286-65.494-146.286-146.286s65.494-146.286 146.286-146.286c49.525 0 93.302 24.611 119.768 62.27 1.213-0.905 2.176-2.101 3.242-3.197l304.513-243.804c-2.716-10.54-4.274-22.64-4.274-35.104 0-80.791 65.494-146.286 146.286-146.286s146.286 65.494 146.286 146.286c0 80.403-64.866 145.655-145.121 146.281zM803.109 911.238c53.861 0 97.524-43.663 97.524-97.524s-43.663-97.524-97.524-97.524c-53.861 0-97.524 43.663-97.524 97.524s43.663 97.524 97.524 97.524c0 0 0 0 0 0zM232.107 348.282c-53.861 0-97.524 43.663-97.524 97.524s43.663 97.524 97.524 97.524c53.861 0 97.524-43.663 97.524-97.524s-43.663-97.524-97.524-97.524zM803.109-18.895c-53.861 0-97.524 43.663-97.524 97.524s43.663 97.524 97.524 97.524c53.861 0 97.524-43.663 97.524-97.524s-43.663-97.524-97.524-97.524z" />
<glyph unicode="&#xe91e;" glyph-name="device-phone-iphone" d="M661.333 917.333h-341.333c-58.88 0-106.667-47.787-106.667-106.667v-725.333c0-58.88 47.787-106.667 106.667-106.667h341.333c58.88 0 106.667 47.787 106.667 106.667v725.333c0 58.88-47.787 106.667-106.667 106.667zM490.667 21.333c-35.413 0-64 28.587-64 64s28.587 64 64 64 64-28.587 64-64-28.587-64-64-64zM682.667 192h-384v597.333h384v-597.333z" />
<glyph unicode="&#xe91f;" glyph-name="instagram" d="M911.381 146.031c-17.835-44.8-52.352-79.317-97.323-97.365-67.413-26.752-227.371-20.608-301.824-20.608-74.539 0-234.667-5.888-301.867 20.608-44.757 17.835-79.275 52.309-97.323 97.365-26.709 67.413-20.565 227.371-20.565 301.867s-5.931 234.709 20.565 301.909c17.835 44.8 52.309 79.317 97.323 97.365 67.413 26.752 227.328 20.565 301.867 20.565 74.453 0 234.624 5.931 301.824-20.565 44.757-17.835 79.275-52.352 97.323-97.365 26.709-67.413 20.565-227.413 20.565-301.909s6.144-234.709-20.565-301.867zM1020.608 659.055c-3.883 82.048-22.656 154.709-82.731 214.613-59.861 59.904-132.523 78.592-214.528 82.731-84.565 4.779-337.963 4.779-422.485 0-81.792-3.883-154.453-22.613-214.528-82.475-60.117-59.904-78.635-132.565-82.731-214.613-4.821-84.565-4.821-338.048 0-422.571 3.883-82.048 22.613-154.709 82.731-214.571 60.075-59.904 132.523-78.635 214.528-82.773 84.523-4.779 337.92-4.779 422.485 0 82.005 3.925 154.667 22.656 214.528 82.773 59.861 59.861 78.592 132.523 82.731 214.571 4.779 84.523 4.779 337.792 0 422.315zM846.699 721.22c0-34.005-27.392-61.227-61.227-61.227-34.048 0-61.227 27.392-61.227 61.227s27.392 61.269 61.227 61.269c33.835 0 61.227-27.435 61.227-61.269zM512.235 277.188c-93.952 0-170.709 76.544-170.709 170.709s76.544 170.709 170.709 170.709c94.123 0 170.667-76.544 170.667-170.709s-76.8-170.709-170.667-170.709zM512.235 710.468c-145.323 0-262.571-117.248-262.571-262.571s117.248-262.571 262.571-262.571c145.28 0 262.485 117.248 262.485 262.571s-117.205 262.571-262.485 262.571z" />
<glyph unicode="&#xe920;" glyph-name="youtube" horiz-adv-x="1479" d="M588.413 230.269v433.152l386.674-216.576-386.674-216.576zM1448.516 799.784c-17.010 63.033-67.129 112.697-130.788 129.593-115.371 30.606-577.991 30.606-577.991 30.606s-462.677 0-577.991-30.606c-63.716-16.896-113.835-66.56-130.844-129.593-30.891-114.347-30.891-352.882-30.891-352.882s0-238.592 30.891-352.939c17.010-63.090 67.129-110.706 130.844-127.602 115.314-30.606 577.991-30.606 577.991-30.606s462.62 0 577.991 30.606c63.659 16.896 113.778 64.512 130.788 127.602 30.948 114.347 30.948 352.939 30.948 352.939s0 238.535-30.948 352.882v0z" />
<glyph unicode="&#xe921;" glyph-name="device-tv" d="M896 832h-768c-46.933 0-85.333-38.4-85.333-85.333v-512c0-46.933 38.4-85.333 85.333-85.333h213.333v-85.333h341.333v85.333h213.333c46.933 0 84.907 38.4 84.907 85.333l0.427 512c0 46.933-38.4 85.333-85.333 85.333zM896 234.667h-768v512h768v-512z" />
<glyph unicode="&#xe922;" glyph-name="icon-info" d="M512 874.667c-235.52 0-426.667-191.147-426.667-426.667s191.147-426.667 426.667-426.667 426.667 191.147 426.667 426.667-191.147 426.667-426.667 426.667zM554.667 234.667h-85.333v256h85.333v-256zM554.667 576h-85.333v85.333h85.333v-85.333z" />
<glyph unicode="&#xe923;" glyph-name="player-next-episode" d="M256 692.8v-492.8l380.8 246.4-380.8 246.4zM704 704h64v-512h-64z" />
<glyph unicode="&#xe924;" glyph-name="grid-view" d="M0 960h186.182v-186.182h-186.182v186.182zM418.909 960h186.182v-186.182h-186.182v186.182zM837.818 960h186.182v-186.182h-186.182v186.182zM0 541.091h186.182v-186.182h-186.182v186.182zM418.909 541.091h186.182v-186.182h-186.182v186.182zM837.818 541.091h186.182v-186.182h-186.182v186.182zM0 122.182h186.182v-186.182h-186.182v186.182zM418.909 122.182h186.182v-186.182h-186.182v186.182zM837.818 122.182h186.182v-186.182h-186.182v186.182z" />
<glyph unicode="&#xe925;" glyph-name="play2" d="M384.393 638.1v-405.993l368.875 202.997-368.875 202.997zM511.895 960.419c-282.828 0-512.105-229.277-512.105-512.105s229.277-512.105 512.105-512.105c282.828 0 512.105 229.277 512.105 512.105-0.239 282.732-229.373 511.866-512.082 512.105zM511.895-0.668c-248.082 0-449.193 201.11-449.193 449.193s201.11 449.193 449.193 449.193c248.082 0 449.193-201.11 449.193-449.193 0-0.062 0-0.136 0-0.21 0-248.166-201.059-449.373-449.17-449.612z" />
<glyph unicode="&#xe926;" glyph-name="Gift" horiz-adv-x="1097" d="M68.571 68.574v274.285h411.428v-342.856h-342.856c-18.571 0-34.643 6.786-48.214 20.357s-20.357 29.643-20.357 48.214zM1028.569 685.715c18.571 0 34.643-6.786 48.214-20.357s20.357-29.643 20.357-48.214v-171.428c0-10-3.214-18.214-9.643-24.643s-14.643-9.643-24.643-9.643h-1028.569c-10 0-18.214 3.214-24.643 9.643s-9.643 14.643-9.643 24.643v171.428c0 18.571 6.786 34.643 20.357 48.214s29.643 20.357 48.214 20.357h94.285c-14.286 27.143-21.429 55.714-21.429 85.714 0 51.428 18.571 95.714 55.714 132.857s81.428 55.714 132.857 55.714c42.857 0 81.428-12.143 115.714-36.428 31.429-21.429 66.428-57.857 105-109.285 38.571 51.428 73.571 87.857 105 109.285 34.286 24.286 72.857 36.428 115.714 36.428 51.428 0 95.714-18.571 132.857-55.714s55.714-81.428 55.714-132.857c0-28.571-7.143-57.143-21.429-85.714h90zM329.999 685.715h184.285c-35.714 52.857-65 92.143-87.857 117.857-20 22.857-37.857 37.857-53.571 45-11.429 5.714-25.714 8.571-42.857 8.571-24.286 0-44.643-8.214-61.071-24.643s-24.643-36.786-24.643-61.071c0-24.286 8.214-44.643 24.643-61.071s36.786-24.643 61.071-24.643zM771.427 685.715c24.286 0 44.643 8.214 61.071 24.643s24.643 36.786 24.643 61.071c0 24.286-8.214 44.643-24.643 61.071s-36.786 24.643-61.071 24.643c-17.143 0-31.429-2.857-42.857-8.571-15.714-7.143-33.571-22.143-53.571-45-22.857-25.714-52.143-65-87.857-117.857h184.285zM617.141 0.002v342.856h411.428v-274.285c0-18.571-6.786-34.643-20.357-48.214s-29.643-20.357-48.214-20.357h-342.856z" />
<glyph unicode="&#xe927;" d="M1024 448c0-282.77-229.23-512-512-512s-512 229.23-512 512c0 282.77 229.23 512 512 512s512-229.23 512-512z" />
<glyph unicode="&#xe928;" glyph-name="channels-list" horiz-adv-x="1152" d="M64 960h320c35.346 0 64-28.654 64-64v-320c0-35.346-28.654-64-64-64h-320c-35.346 0-64 28.654-64 64v320c0 35.346 28.654 64 64 64zM640 704h192c35.346 0 64-28.654 64-64s-28.654-64-64-64h-192c-35.346 0-64 28.654-64 64s28.654 64 64 64zM640 896h448c35.346 0 64-28.654 64-64s-28.654-64-64-64h-448c-35.346 0-64 28.654-64 64s28.654 64 64 64zM64 384h320c35.346 0 64-28.654 64-64v-320c0-35.346-28.654-64-64-64h-320c-35.346 0-64 28.654-64 64v320c0 35.346 28.654 64 64 64zM640 320h448c35.346 0 64-28.654 64-64s-28.654-64-64-64h-448c-35.346 0-64 28.654-64 64s28.654 64 64 64zM640 128h192c35.346 0 64-28.654 64-64s-28.654-64-64-64h-192c-35.346 0-64 28.654-64 64s28.654 64 64 64z" />
<glyph unicode="&#xe929;" glyph-name="play1" d="M751.033 398.344l-363.441-208.581c-32.61-18.196-73.728 5.199-73.728 43.323v429.529c0 38.046 40.881 61.598 73.728 43.402l363.441-220.948c33.871-19.062 33.871-67.978 0-86.725zM512.126 960.047c-282.939 0-512.158-229.218-512.158-512.158s229.218-512.079 512.158-512.079c282.86 0 512.079 229.14 512.079 512.079s-229.218 512.158-512.079 512.158z" />
<glyph unicode="&#xe92a;" glyph-name="volume2" horiz-adv-x="796" d="M0 623.143v-350.285h233.523l291.904-291.904v934.094l-291.904-291.904h-233.523zM788.141 448c0 103.334-59.548 192.073-145.952 235.275v-469.966c86.404 42.618 145.952 131.357 145.952 234.691z" />
<glyph unicode="&#xe92b;" glyph-name="record1" horiz-adv-x="945" d="M945.231 448c0-261.018-211.597-472.615-472.615-472.615s-472.615 211.597-472.615 472.615c0 261.018 211.597 472.615 472.615 472.615s472.615-211.597 472.615-472.615z" />
<glyph unicode="&#xe92c;" glyph-name="tv-channels" horiz-adv-x="1229" d="M750.933 960h409.6c37.703 0 68.267-30.564 68.267-68.267v-136.533c0-37.703-30.564-68.267-68.267-68.267h-409.6c-37.703 0-68.267 30.564-68.267 68.267v136.533c0 37.703 30.564 68.267 68.267 68.267zM750.933 550.4h409.6c37.703 0 68.267-30.564 68.267-68.267v-477.867c0-37.703-30.564-68.267-68.267-68.267h-409.6c-37.703 0-68.267 30.564-68.267 68.267v477.867c0 37.703 30.564 68.267 68.267 68.267zM68.267 960h409.6c37.703 0 68.267-30.564 68.267-68.267v-477.867c0-37.703-30.564-68.267-68.267-68.267h-409.6c-37.703 0-68.267 30.564-68.267 68.267v477.867c0 37.703 30.564 68.267 68.267 68.267zM68.267 209.067h409.6c37.703 0 68.267-30.564 68.267-68.267v-136.533c0-37.703-30.564-68.267-68.267-68.267h-409.6c-37.703 0-68.267 30.564-68.267 68.267v136.533c0 37.703 30.564 68.267 68.267 68.267z" />
<glyph unicode="&#xe92d;" d="M709.895 618.142l-299.501-298.535-105.897 105.54c-5.004 5.004-13.138 5.004-18.142 0l-12.104-12.056c-5.014-4.994-5.014-13.099 0-18.094l127.063-126.648c5.014-5.004 13.138-5.004 18.152 0l320.676 319.633c5.014 5.004 5.014 13.099 0 18.094l-12.095 12.066c-5.014 4.994-13.138 4.994-18.152 0z" />
<glyph unicode="&#xe92e;" glyph-name="devices" horiz-adv-x="1331" d="M1262.626 249.6c9.333 0 17-3 23-9s9-13.667 9-23v-96c0-44-15.667-81.666-47-113s-69-47-113-47h-959.998c-44 0-81.666 15.667-113 47s-47 69-47 113v96c0 9.333 3 17 9 23s13.667 9 23 9h96v543.998c0 34.667 12.666 64.667 38 90s55.333 38 90 38h767.998c34.667 0 64.667-12.667 90-38s38-55.333 38-90v-543.998h96zM206.628 793.598v-543.999h305.999c8 0 13.333-4.667 16-14 2.667-14.667 10-26.667 22-36s25.333-14 40-14h128c14.667 0 28 4.667 40 14s19.333 21.333 22 36c2.667 9.333 8 14 16 14h305.999v543.999c0 17.333-6.333 32.333-19 45s-27.667 19-45 19h-767.998c-17.333 0-32.333-6.333-45-19s-19-27.667-19-45zM1230.626 121.6v64h-389.999c-6.667-18.667-18.333-34-35-46s-35-18-55-18h-192c-20 0-38.333 6-55 18s-28.333 27.333-35 46h-389.999v-64c0-26.667 9.333-49.333 28-68s41.333-28 68-28h959.998c26.667 0 49.333 9.333 68 28s28 41.333 28 68z" />
<glyph unicode="&#xe92f;" d="M135.824 960c-75.021 0.017-135.841-60.803-135.824-135.824v-752.428c0.024-74.991 60.833-135.766 135.824-135.748h752.428c74.962 0.024 135.724 60.786 135.748 135.748v752.428c0.017 74.991-60.757 135.799-135.748 135.824h-752.428z" />
<glyph unicode="&#xe930;" d="M135.824 960c-75.021 0.017-135.841-60.803-135.824-135.824v-752.428c0.024-74.991 60.833-135.766 135.824-135.748h752.428c74.962 0.024 135.724 60.786 135.748 135.748v752.428c0.017 74.991-60.757 135.799-135.748 135.824h-752.428z" />
<glyph unicode="&#xe931;" d="M404.762 52.229v778.23h-123.538l-161.678-98.303 32.336-130.046 108.614 68.607h1.658v-618.488h142.608zM904.454 202.755h-213.083v2.048l53.063 62.463c39.987 46.74 74.637 97.641 103.95 152.702s44.686 116.457 46.12 184.19c0.293 66.793-16.255 122.643-49.643 167.55-33.39 44.905-85.382 68.244-155.978 70.015-36.62-0.598-70.751-7.339-102.396-20.224-31.645-12.886-57.485-28.331-77.522-46.335l38.139-131.070c14.751 13.375 31.886 25.279 51.405 35.712 19.519 10.431 39.97 15.935 61.355 16.512 30.211-0.811 52.7-11.478 67.469-32 14.768-20.523 22.127-46.037 22.075-76.543-0.467-46.016-15.909-94.527-46.327-145.534s-73.014-111.039-127.788-180.094l-72.962-97.279v-112.639h402.122v150.526z" />
<glyph unicode="&#xe932;" d="M135.824 960c-75.021 0.017-135.841-60.803-135.824-135.824v-752.428c0.024-74.991 60.833-135.766 135.824-135.748h752.428c74.962 0.024 135.724 60.786 135.748 135.748v752.428c0.017 74.991-60.757 135.799-135.748 135.824h-752.428z" />
<glyph unicode="&#xe933;" d="M392.326 52.229v778.23h-123.538l-161.678-98.303 32.336-130.046 108.614 68.607h1.658v-618.488h142.608zM628.358 507.903c7.825 45.908 25.547 86.697 53.167 122.366s67.935 58.025 120.947 67.071c10.294 1.557 19.76 2.794 28.397 3.712 8.636 0.917 16.858 1.386 24.666 1.408v137.214c-13.042 0.085-23.647-0.086-31.817-0.512-8.171-0.427-17.74-1.622-28.708-3.584-95.366-10.262-170.988-56.299-226.867-138.11-55.879-81.813-84.449-190.057-85.71-324.732 0.138-96.255 19.139-175.102 57.002-236.541s93.759-93.183 167.689-95.231c66.053 2.496 117.389 30.784 154.008 84.863s55.205 118.974 55.758 194.685c-1.175 78.783-17.688 139.326-49.54 181.63s-71.995 63.679-120.429 64.127c-24.546-0.193-46.552-5.44-66.018-15.744s-35.877-24.512-49.229-42.623h-3.316zM705.466 168.964c-25.271 1.365-44.375 17.066-57.313 47.103s-19.813 66.218-20.624 108.543c0.069 14.378 0.76 26.581 2.073 36.608s2.833 17.621 4.56 22.784c6.374 17.258 15.183 31.381 26.428 42.367s23.992 16.661 38.243 17.024c25.167-1.494 43.649-15.147 55.447-40.959s17.636-54.826 17.515-87.039c0.242-37.909-4.802-71.402-15.131-100.479s-27.396-44.394-51.198-45.951v0z" />
<glyph unicode="&#xe934;" d="M135.824 960c-75.021 0.017-135.841-60.803-135.824-135.824v-752.428c0.024-74.991 60.833-135.766 135.824-135.748h752.428c74.962 0.024 135.724 60.786 135.748 135.748v752.428c0.017 74.991-60.757 135.799-135.748 135.824h-752.428z" />
<glyph unicode="&#xe935;" d="M746.44 666.589c-96.415-2.505-177.315-69.877-202.4-159.68 0 0-457.36 0-457.36 0s0-277.52 0-277.52c0 0 107.2 0 107.2 0s0 159.76 0 159.76c0 0 92.4 0 92.4 0s0-159.76 0-159.76c0 0 107.12 0 107.12 0s0 159.76 0 159.76c0 0 150.64 0 150.64 0 25.566-91.526 109.062-159.76 207.92-159.76 119.133 0 216.080 99.094 216.080 218.64s-96.947 218.56-216.080 218.56c-1.861 0-3.67 0.048-5.52 0zM751.96 551.389c55.797 0 100.88-45.155 100.88-103.36s-45.083-103.44-100.88-103.44c-55.797 0-100.8 45.235-100.8 103.44s45.003 103.36 100.8 103.36z" />
<glyph unicode="&#xe936;" d="M135.824 960c-75.021 0.017-135.841-60.803-135.824-135.824v-752.428c0.024-74.991 60.833-135.766 135.824-135.748h752.428c74.962 0.024 135.724 60.786 135.748 135.748v752.428c0.017 74.991-60.757 135.799-135.748 135.824h-752.428z" />
<glyph unicode="&#xe937;" d="M404.199 622.955c0-47.939-38.863-86.802-86.802-86.802s-86.802 38.863-86.802 86.802c0 0 0 0 0 0 0 47.939 38.863 86.802 86.802 86.802s86.802-38.863 86.802-86.802c0 0 0 0 0 0z" />
<glyph unicode="&#xe938;" d="M793.405 622.955c0-47.939-38.863-86.802-86.802-86.802s-86.802 38.863-86.802 86.802c0 0 0 0 0 0 0 47.939 38.863 86.802 86.802 86.802s86.802-38.863 86.802-86.802c0 0 0 0 0 0z" />
<glyph unicode="&#xe939;" d="M160.28 414.748c-0.029-1.174-0.059-2.333-0.059-3.511 0-120.961 160.253-242.767 351.778-242.767s351.778 121.806 351.778 242.767c0 1.179-0.029 2.337-0.059 3.511-53.265-60.598-193.337-98.977-351.72-98.977s-298.455 38.379-351.72 98.977z" />
<glyph unicode="&#xe93a;" glyph-name="favourite-stroke" d="M736 752c99.2 0 180.8-83.2 180.8-185.6 0-48-22.4-89.6-57.6-136l-331.2-336-331.2 336c-30.4 40-57.6 84.8-57.6 136 0 102.4 80 185.6 180.8 185.6 62.4 0 120-33.6 153.6-88l54.4-91.2 54.4 91.2c33.6 54.4 91.2 88 153.6 88zM736 816c-88 0-164.8-48-208-120-43.2 72-120 120-208 120-136 0-244.8-112-244.8-249.6 0-70.4 33.6-124.8 73.6-177.6l356.8-363.2c6.4-6.4 12.8-9.6 22.4-9.6 6.4 0 12.8 3.2 17.6 6.4l3.2 3.2 358.4 363.2c40 52.8 73.6 108.8 73.6 177.6 0 137.6-108.8 249.6-244.8 249.6z" />
<glyph unicode="&#xe93b;" d="M311.354 680.957h252.051v-2.048l-227.178-626.68h149.241l227.178 665.591v112.639h-401.292v-149.502z" />
<glyph unicode="&#xe93c;" glyph-name="cinema" d="M913.961 522.285l-174.85-116.568c-0.086 35.234-15.907 66.756-40.804 87.92 59.267 36.397 98.344 100.886 98.344 174.5 0 112.43-91.14 203.57-203.57 203.57s-203.57-91.14-203.57-203.57c0-57.173 23.568-108.836 61.515-145.814l-107.021-0.041c27.905 30.83 44.981 71.916 44.981 116.991 0 96.45-78.187 174.638-174.638 174.638-96.304 0-174.399-77.95-174.637-174.196 0.135-52.478 23.518-99.438 60.381-131.181-36.147-20.231-60.384-58.322-60.384-102.073 0-0.264 0.001-0.527 0.003-0.79v-232.247c0-64.377 52.187-116.568 116.568-116.568h466.268c64.377 0 116.568 52.187 116.568 116.568v28.297l174.85-145.709c32.191 0 58.285 26.094 58.285 58.285v349.703c0 32.191-26.094 58.285-58.285 58.285zM97.989 639.697c0 64.377 52.187 116.568 116.568 116.568s116.568-52.187 116.568-116.568c0-64.377-52.187-116.568-116.568-116.568s-116.568 52.187-116.568 116.568zM680.827 173.429c0-32.191-26.094-58.285-58.285-58.285h-466.268c-32.191 0-58.285 26.094-58.285 58.285v232.291c0 32.191 26.094 58.285 58.285 58.285h466.268c32.191 0 58.285-26.094 58.285-58.285zM593.401 522.073c-80.589 0-145.921 65.332-145.921 145.921s65.332 145.921 145.921 145.921c80.516 0 145.799-65.211 145.921-145.697 0-0.012 0-0.012 0-0.013 0-80.63-65.304-146.011-145.909-146.133zM913.961 114.297l-174.85 145.286v87.848l174.85 116.568z" />
<glyph unicode="&#xe93d;" glyph-name="error" horiz-adv-x="1122" d="M1111.834 97.524c10.159-20.317 13.333-40.952 9.524-61.905s-13.968-38.73-30.476-53.333c-16.508-14.603-36.19-21.905-59.047-21.905h-914.284c-22.857 0-42.54 7.302-59.047 21.905s-26.667 32.381-30.476 53.333c-3.81 20.952-0.635 41.587 9.524 61.905l457.142 792.379c11.429 20.317 27.619 33.968 48.571 40.952s41.905 6.984 62.857 0c20.952-6.984 37.143-20.635 48.571-40.952l457.142-792.379zM1058.501 67.048l-457.142 792.379c-6.349 10.159-15.238 15.238-26.667 15.238s-20.317-5.079-26.667-15.238l-457.142-792.379c-5.079-10.159-4.762-20.317 0.952-30.476s14.286-15.238 25.714-15.238h914.284c11.429 0 20 5.079 25.714 15.238s6.032 20.317 0.952 30.476zM574.693 227.047c15.238 0 27.936-5.079 38.095-15.238s15.238-22.857 15.238-38.095c0-15.238-5.079-27.936-15.238-38.095s-22.857-15.238-38.095-15.238c-15.238 0-27.936 5.079-38.095 15.238s-15.238 22.857-15.238 38.095c0 15.238 5.079 27.936 15.238 38.095s22.857 15.238 38.095 15.238zM553.74 630.856h41.905c7.619 0 13.651-2.222 18.095-6.667s6.032-9.841 4.762-16.19l-13.333-319.999c0-6.349-2.222-11.746-6.667-16.19s-9.841-6.667-16.19-6.667h-15.238c-6.349 0-11.746 2.222-16.19 6.667s-6.667 9.206-6.667 14.286l-13.333 321.904c-1.27 6.349 0.317 11.746 4.762 16.19s10.476 6.667 18.095 6.667z" />
<glyph unicode="&#xe93e;" glyph-name="favourites" horiz-adv-x="1138" d="M1026.718 890.85c45.926-38.518 77.778-85.926 95.555-142.222s20.37-112.963 7.778-170c-12.593-57.037-39.63-106.296-81.111-147.777l-428.888-444.443c-14.815-14.815-31.852-22.222-51.111-22.222s-36.296 7.407-51.111 22.222l-428.888 442.221c-41.481 42.963-68.518 92.963-81.111 150s-10 113.703 7.778 170c17.778 56.296 49.259 103.703 94.444 142.222s95.185 60.741 150 66.667c48.889 5.926 98.518-0.741 148.889-20 45.926-17.778 84.444-42.963 115.555-75.555l44.444-46.667 44.444 46.667c37.037 38.518 80.37 65.926 130 82.222s99.629 20 150 11.111c50.37-8.889 94.815-30.37 133.333-64.444zM997.83 479.74c29.63 29.63 50 66.296 61.111 110s10.741 86.296-1.111 127.777c-13.333 47.407-38.889 87.037-76.666 118.889s-79.629 49.259-125.555 52.222c-37.037 1.481-74.815-6.667-113.333-24.444-32.593-13.333-58.518-31.111-77.778-53.333l-95.555-97.778-95.555 97.778c-20.741 22.222-46.667 40.741-77.778 55.555-38.518 17.778-76.296 25.185-113.333 22.222-45.926-2.963-87.778-20.37-125.555-52.222s-63.333-71.481-76.666-118.889c-11.852-41.481-12.222-84.074-1.111-127.777s31.481-80.37 61.111-110l428.888-444.443 428.888 444.443z" />
<glyph unicode="&#xe93f;" glyph-name="logout" horiz-adv-x="1365" d="M479.999 960c8.889 0 16.444-3.111 22.667-9.333s9.333-13.778 9.333-22.667v-21.333c0-8.889-3.111-16.444-9.333-22.667s-13.778-9.333-22.667-9.333h-351.999c-12.444 0-22.667-4-30.667-12s-12-18.222-12-30.667v-767.998c0-12.444 4-22.667 12-30.667s18.222-12 30.667-12h351.999c8.889 0 16.444-3.111 22.667-9.333s9.333-13.778 9.333-22.667v-21.333c0-8.889-3.111-16.444-9.333-22.667s-13.778-9.333-22.667-9.333h-351.999c-35.555 0-65.778 12.444-90.666 37.333s-37.333 55.111-37.333 90.666v767.998c0 35.555 12.444 65.778 37.333 90.666s55.111 37.333 90.666 37.333h351.999zM871.998 909.333c7.111 5.333 14.667 8 22.667 8s15.556-2.667 22.667-8l439.999-437.332c5.333-7.111 8-15.111 8-24s-2.667-16-8-21.333l-439.999-439.999c-5.333-5.333-12.444-8-21.333-8s-16.889 3.556-24 10.667l-18.667 18.667c-7.111 5.333-10.667 12.444-10.667 21.333s3.556 16.889 10.667 24l351.999 349.333h-746.665c-8.889 0-16.444 3.111-22.667 9.333s-9.333 13.778-9.333 22.667v26.667c0 8.889 3.111 16.444 9.333 22.667s13.778 9.333 22.667 9.333h746.665l-351.999 349.333c-7.111 7.111-10.667 15.111-10.667 24s3.556 16 10.667 21.333l18.667 21.333z" />
<glyph unicode="&#xe940;" glyph-name="profile" d="M959.975 64.049c0-35.359-28.665-64.025-63.946-64.025h-768.059c-35.359 0-63.946 28.665-63.946 64.025v55.283c0 71.427 47.329 134.192 116 153.801l139.783 39.927c34.099-22.287 100.408-57.016 192.231-57.016 91.745 0 158.053 34.729 192.153 57.016l139.704-39.927c68.75-19.609 116.079-82.374 116.079-153.801v-55.283zM512.039 895.975c158.998 0 287.914-128.915 287.914-287.993 0-158.998-128.915-287.993-287.914-287.993-159.077 0-288.071 128.994-288.071 287.993 0 159.077 128.994 287.993 288.071 287.993v0zM861.537 334.795l-97.336 27.72c91.43 93.871 99.778 202.311 99.778 245.467 0 194.358-157.502 352.017-351.938 352.017-194.358 0-352.017-157.423-352.017-352.017 0-43.234 8.269-151.596 99.699-245.467l-97.258-27.72c-123.482-35.359-162.463-147.737-162.463-215.463v-55.283c0-70.561 57.41-128.049 127.97-128.049h768.059c70.482 0 127.97 57.488 127.97 128.049v55.283c0 66.387-37.958 179.789-162.463 215.463v0z" />
<glyph unicode="&#xe941;" glyph-name="purchases" horiz-adv-x="1122" d="M1051.426 813.712c13.968 0 25.714-5.714 35.238-17.143s12.381-24.127 8.571-38.095l-81.905-396.19c-2.54-10.159-7.937-18.73-16.19-25.714s-17.46-10.476-27.619-10.476h-632.379l22.857-121.904h563.808c11.429 0 21.27-3.175 29.524-9.524s13.651-14.603 16.19-24.762c24.127-24.127 36.19-53.333 36.19-87.619s-11.746-63.174-35.238-86.666c-23.492-23.492-52.381-35.238-86.666-35.238s-63.174 11.746-86.666 35.238c-23.492 23.492-35.238 52.381-35.238 86.666 0 21.587 5.714 41.905 17.143 60.952h-278.095c11.429-19.048 17.143-39.365 17.143-60.952 0-34.286-11.746-63.174-35.238-86.666s-52.381-35.238-86.666-35.238c-34.286 0-63.174 11.746-86.666 35.238s-35.238 51.746-35.238 84.762c0 33.016 10.794 60.952 32.381 83.809l-133.333 710.474h-150.476c-6.349 0-11.746 2.222-16.19 6.667s-6.667 9.841-6.667 16.19v15.238c0 6.349 2.222 11.746 6.667 16.19s9.841 6.667 16.19 6.667h161.904c11.429 0 21.27-3.492 29.524-10.476s13.651-16.19 16.19-27.619l15.238-83.81h805.712zM457.142 82.286c0 16.508-6.032 30.794-18.095 42.857s-26.349 18.095-42.857 18.095c-16.508 0-30.794-6.032-42.857-18.095s-18.095-26.349-18.095-42.857c0-16.508 6.032-30.794 18.095-42.857s26.349-18.095 42.857-18.095c16.508 0 30.794 6.032 42.857 18.095s18.095 26.349 18.095 42.857zM883.807 21.333c16.508 0 30.794 6.032 42.857 18.095s18.095 26.349 18.095 42.857c0 16.508-6.032 30.794-18.095 42.857s-26.349 18.095-42.857 18.095c-16.508 0-30.794-6.032-42.857-18.095s-18.095-26.349-18.095-42.857c0-16.508 6.032-30.794 18.095-42.857s26.349-18.095 42.857-18.095zM956.188 387.047l76.19 365.713h-775.236l68.571-365.713h630.475z" />
<glyph unicode="&#xe942;" glyph-name="recordings" d="M1024 448c0-282.77-229.23-512-512-512s-512 229.23-512 512c0 282.77 229.23 512 512 512s512-229.23 512-512z" />
<glyph unicode="&#xe943;" glyph-name="reminders" horiz-adv-x="878" d="M567.618 270.857l-7.619-11.429c-3.81-5.079-8.889-8.254-15.238-9.524s-12.063 0-17.143 3.81l-121.904 83.809c-6.349 3.81-9.524 9.524-9.524 17.143v253.333c0 6.349 2.222 11.746 6.667 16.19s9.841 6.667 16.19 6.667h15.238c6.349 0 11.746-2.222 16.19-6.667s6.667-9.841 6.667-16.19v-232.38l104.762-72.381c5.079-3.81 8.254-8.889 9.524-15.238s0-12.063-3.81-17.143zM719.998 76.571l62.857-64.762c6.349-5.079 9.524-12.063 9.524-20.952s-2.857-16.19-8.571-21.905c-5.714-5.714-13.016-8.571-21.905-8.571s-15.873 3.175-20.952 9.524l-68.571 68.571c-73.651-52.063-155.555-78.095-245.714-78.095s-172.063 26.032-245.714 78.095l-68.571-68.571c-5.079-6.349-12.063-9.524-20.952-9.524s-16.19 2.857-21.905 8.571c-5.714 5.714-8.571 13.016-8.571 21.905s3.175 15.873 9.524 20.952l62.857 64.762c-41.905 39.365-74.603 86.032-98.095 140s-35.238 110.793-35.238 170.476c0 71.111 16.508 137.777 49.524 200-33.016 39.365-49.524 84.444-49.524 135.238 0 38.095 9.524 73.651 28.571 106.666s45.079 59.047 78.095 78.095c33.016 19.048 68.571 28.571 106.666 28.571 41.905 0 80.317-11.111 115.238-33.333s60.635-51.746 77.143-88.572h41.905c16.508 36.826 42.222 66.349 77.143 88.572s73.333 33.333 115.238 33.333c38.095 0 73.651-9.524 106.666-28.571s59.047-45.079 78.095-78.095c19.048-33.016 28.571-68.571 28.571-106.666 0-50.794-16.508-96.508-49.524-137.143 33.016-60.952 49.524-126.984 49.524-198.095 0-59.682-11.746-116.508-35.238-170.476s-56.19-100.635-98.095-140zM513.47 805.853c51.642-11.463 99.215-31.065 142.718-58.807 43.809-27.936 81.587-62.857 113.333-104.762 15.238 24.127 22.857 50.794 22.857 80 0 41.905-14.921 77.778-44.762 107.619s-65.714 44.762-107.619 44.762c-26.667 0-51.111-6.349-73.333-19.048-21.648-12.37-39.38-28.959-53.195-49.764v0zM60.952 722.284c0-29.206 7.619-55.873 22.857-80 31.746 40.635 69.524 75.238 113.333 103.809s91.746 48.571 143.809 60c-13.968 20.317-32.063 36.825-54.286 49.524s-46.667 19.048-73.333 19.048c-41.905 0-77.778-14.921-107.619-44.762s-44.762-65.714-44.762-107.619zM426.666 752.76c-66.032 0-126.984-16.508-182.857-49.524s-100.317-77.46-133.333-133.333c-33.016-55.873-49.524-116.825-49.524-182.857s16.508-126.984 49.524-182.857c33.016-55.873 77.46-100.317 133.333-133.333s116.825-49.524 182.857-49.524c66.032 0 126.984 16.508 182.857 49.524s100.317 77.46 133.333 133.333c33.016 55.873 49.524 116.825 49.524 182.857s-16.508 126.984-49.524 182.857c-33.016 55.873-77.46 100.317-133.333 133.333s-116.825 49.524-182.857 49.524z" />
<glyph unicode="&#xe944;" glyph-name="rental" horiz-adv-x="1472" d="M1330.861 319.674v-200.128c0-22.080-17.536-40-39.104-40h-1174.336c-21.568 0-39.104 17.92-39.104 40v200.128c86.336 0 156.544 71.808 156.544 160.064s-70.208 160.128-156.544 160.128v200.064c0 22.080 17.536 40 39.104 40h1174.336c21.568 0 39.104-17.92 39.104-40v-200.064c-86.336 0-156.544-71.872-156.544-160.128s70.208-160.064 156.544-160.064zM1330.861 559.802h78.336v280.128c0 66.304-52.608 120.064-117.44 120.064h-1174.336c-64.832 0-117.376-53.76-117.376-120.064v-280.128h78.272c43.2 0 78.272-35.904 78.272-80.064s-35.072-80.064-78.272-80.064h-78.272v-280.128c0-66.304 52.544-120.064 117.376-120.064h1174.336c64.832 0 117.44 53.76 117.44 120.064v280.128h-78.336c-43.2 0-78.272 35.904-78.272 80.064s35.072 80.064 78.272 80.064z" />
<glyph unicode="&#xe945;" glyph-name="regulaminy" horiz-adv-x="819" d="M204.8 140.8h409.6v102.4h-409.6v-102.4zM204.8 345.6h409.6v102.4h-409.6v-102.4zM102.4-64c-28.16 0-52.275 10.035-72.294 30.054-20.070 20.070-30.106 44.186-30.106 72.346v819.2c0 28.16 10.035 52.275 30.106 72.294 20.019 20.070 44.134 30.106 72.294 30.106h409.6l307.2-307.2v-614.4c0-28.16-10.035-52.275-30.054-72.346-20.070-20.019-44.186-30.054-72.346-30.054h-614.4zM460.8 601.6h256l-256 256v-256z" />
<glyph unicode="&#xe946;" glyph-name="playbutton" d="M751.033 398.344l-363.441-208.581c-32.61-18.196-73.728 5.199-73.728 43.323v429.529c0 38.046 40.881 61.598 73.728 43.402l363.441-220.948c33.871-19.062 33.871-67.978 0-86.725zM512.126 960.047c-282.939 0-512.158-229.218-512.158-512.158s229.218-512.079 512.158-512.079c282.86 0 512.079 229.14 512.079 512.079s-229.218 512.158-512.079 512.158z" />
<glyph unicode="&#xe947;" glyph-name="cart" horiz-adv-x="1195" d="M1083.536 357.318l97.021 416.042c7.009 30.004-16.459 58.591-48.038 58.591h-805.86l-18.822 89.697c-4.725 22.287-24.885 38.352-48.274 38.352h-210.344c-27.169 0-49.219-21.499-49.219-48.038v-31.973c0-26.46 22.050-48.038 49.219-48.038h143.406l144.114-686.788c-34.493-19.294-57.725-55.598-57.725-97.179 0-61.82 51.424-111.984 114.898-111.984s114.898 50.164 114.898 111.984c0 31.422-13.23 59.693-34.493 80.011h430.138c-21.263-20.318-34.493-48.589-34.493-80.011 0-61.82 51.346-111.984 114.898-111.984 63.395 0 114.898 50.164 114.898 111.984 0 44.416-26.46 82.689-64.812 100.88l11.261 48.511c7.009 30.083-16.38 58.591-47.959 58.591h-550.785l-13.388 64.025h601.501c22.995 0 42.919 15.514 47.959 37.328z" />
<glyph unicode="&#xe948;" glyph-name="serial-episode-watched" d="M804.397 569.714l-372.602-369.575c-9.706-9.661-25.377-9.617-35.039 0.134l-177.286 178.71c-9.617 9.706-9.572 25.422 0.134 35.039l17.586 17.453c9.75 9.617 25.422 9.572 35.039-0.134l142.425-143.583 337.386 334.759c9.706 9.617 25.422 9.528 35.039-0.178l17.453-17.586c9.661-9.706 9.572-25.377-0.134-35.039zM512.022 2.061c-245.003 0-445.93 198.344-445.93 445.93 0 245.003 198.3 445.93 445.93 445.93 244.959 0 445.93-198.3 445.93-445.93 0-245.003-198.3-445.93-445.93-445.93zM512.022 959.991c-282.802 0-512-229.198-512-512 0-282.758 229.198-512 512-512 282.758 0 512 229.242 512 512 0 282.802-229.242 512-512 512z" />
<glyph unicode="&#xe949;" glyph-name="gift-outline" horiz-adv-x="1104" d="M1104.434 644.4h-359.945c44.010 15.228 84.952 37.986 116.468 71.9 25.945 28.46 41.835 66.48 41.835 108.211 0 0.079 0 0.158 0 0.237v-0.012c0 0.025 0 0.054 0 0.083 0 15.088-2.16 29.672-6.186 43.459l0.274-1.094c-8.381 28.418-25.953 51.925-49.211 67.663l-0.433 0.276c-22.44 15.091-49.943 24.3-79.562 24.875l-0.147 0.002h-4.741c-0.048 0-0.104 0-0.16 0-29.525 0-57.309-7.455-81.572-20.586l0.908 0.449c-25.124-13.788-46.085-32.13-62.446-54.1l-0.362-0.509c-25.287-34.931-44.765-75.941-55.975-120.244l-0.53-2.471c-3.905-14.447-7.084-29.061-9.873-43.675-2.845 11.156-6.080 22.814-9.873 34.081-11.070 34.58-26.988 64.615-47.269 91.135l0.526-0.716c-10.834 13.724-23.256 25.526-37.155 35.383l-0.552 0.372c-22.548 15.948-50.61 25.492-80.902 25.492-0.169 0-0.338 0-0.506-0.001h-0.978c-29.866-0.165-57.649-8.936-81.037-23.957l0.603 0.363c-12.292-7.942-22.612-17.782-30.839-29.227l-0.23-0.336c-8.403-11.77-14.317-25.888-16.665-41.181l-0.068-0.542c-0.674-4.204-1.060-9.050-1.060-13.986 0-0.025 0-0.049 0-0.074v0.004c0.082-14.908 3.361-29.030 9.185-41.743l-0.26 0.634c9.059-19.372 21.305-35.794 36.237-49.304l0.131-0.117c13.936-12.907 29.623-24.256 46.582-33.578l1.221-0.615c17.263-9.557 37.537-18.533 58.63-25.741l2.727-0.81h-401.222v-223.118h50.759v-413.549c0 0 0 0 0 0 0-39.617 32.116-71.732 71.732-71.732 0.078 0 0.157 0 0.235 0h859.55c39.593 0.032 71.677 32.135 71.677 71.732 0 0 0 0 0 0v0 413.549h50.48zM615.973-36.11h-127.512v652.62h65.15c0.502 0 1.004 0 2.008 0h60.353zM641.464 868.522c14.214 19.321 32.116 35.067 52.767 46.433l0.837 0.422c19.414 10.539 42.508 16.735 67.050 16.735 0.234 0 0.468-0.001 0.703-0.002h3.924c24.187-0.427 46.555-7.864 65.257-20.358l-0.442 0.278c18.427-12.287 32.099-30.447 38.43-51.766l0.17-0.667c3.080-10.345 4.853-22.231 4.853-34.531 0-0.058 0-0.115 0-0.172v0.009c-0.011-34.401-13.078-65.748-34.514-89.357l0.098 0.11c-32.966-35.643-79.653-58.568-130.747-72.513-41.701-11.118-89.679-17.76-139.121-18.293l-0.328-0.003c3.856 41.496 10.613 79.263 20.232 115.87l-1.099-4.924c10.83 42.966 28.726 80.633 52.598 113.701l-0.667-0.971zM299.090 738.053c-7.030 8.012-12.992 17.207-17.512 27.195l-0.282 0.695c-4.062 8.798-6.475 19.081-6.582 29.915v0.038c0.098 14.885 4.78 28.658 12.702 40l-0.152-0.229c9.812 13.267 22.786 23.661 37.834 30.169l0.598 0.23c14.862 6.755 32.216 10.747 50.489 10.877h0.884c0.138 0.001 0.3 0.001 0.463 0.001 9.028 0 17.819-1.016 26.264-2.941l-0.789 0.151c15.044-3.52 28.278-9.576 39.909-17.756l-0.362 0.241c18.012-13.164 32.918-29.404 44.211-48.073l0.412-0.734c11.28-18.145 21.107-39.052 28.407-61.11l0.599-2.089c9.458-28.156 17.137-61.479 21.627-95.806l0.295-2.756c-10.598 1.283-24.766 3.124-37.763 4.909l-23.372 3.235-7.921 1.171-2.454 0.39h-0.669c-42.46 8.631-80.157 22.368-114.968 40.824l2.294-1.109c-21.027 11.371-38.931 25.575-53.999 42.375l-0.163 0.185zM27.89 616.51h432.682v-167.338h-432.682zM91.478-23.225c-7.924 7.848-12.83 18.73-12.83 30.758 0 0.070 0 0.14 0 0.21v-0.011 413.549h381.922v-457.392h-337.856c-0.064 0-0.139-0.001-0.214-0.001-12.122 0-23.093 4.925-31.021 12.884l-0.001 0.001zM1025.785 7.732c-0.032-24.181-19.61-43.779-43.781-43.843h-338.141v457.392h381.922zM1076.544 449.171h-432.682v167.338h432.682z" />
<glyph unicode="&#xe94a;" glyph-name="volume3" horiz-adv-x="1081" d="M0 623.143v-350.285h233.523l291.904-291.904v934.094l-291.904-291.904h-233.523zM788.141 448c0 103.334-59.548 192.073-145.952 235.275v-469.966c86.404 42.618 145.952 131.357 145.952 234.691zM642.189 960v-120.265c168.721-50.208 291.904-206.668 291.904-391.735s-123.184-341.528-291.904-391.735v-120.265c234.107 53.127 408.666 262.13 408.666 512s-174.559 458.873-408.666 512z" />
<glyph unicode="&#xe94b;" glyph-name="volume-muted" d="M768 448c0 100.693-58.027 187.164-142.222 229.262v-125.724l139.378-139.378c1.707 11.378 2.844 23.324 2.844 35.84v0zM910.222 448c0-53.476-11.378-103.538-30.72-150.187l85.902-85.902c37.547 70.542 58.596 150.756 58.596 236.089 0 243.484-170.098 447.147-398.222 498.916v-117.191c164.409-48.924 284.444-201.387 284.444-381.724zM72.249 960l-72.249-72.249 269.084-269.084h-269.084v-341.333h227.556l284.444-284.444v382.862l241.778-241.778c-38.116-29.582-80.782-52.907-128-67.129v-117.191c78.507 17.636 149.618 54.044 209.92 102.969l116.053-116.622 72.249 72.249-951.751 951.751zM512 903.111l-118.898-118.898 118.898-118.898v237.796z" />
<glyph unicode="&#xe94c;" glyph-name="smallscreen" d="M40.96 263.68h286.72v-286.72c0-22.624 18.336-40.96 40.96-40.96s40.96 18.336 40.96 40.96v368.64h-368.64c-22.624 0-40.96-18.336-40.96-40.96s18.336-40.96 40.96-40.96zM655.36-64c22.624 0 40.96 18.336 40.96 40.96v286.72h286.72c22.624 0 40.96 18.336 40.96 40.96s-18.336 40.96-40.96 40.96h-368.64v-368.64c0-22.624 18.336-40.96 40.96-40.96zM983.040 550.4c22.624 0 40.96 18.336 40.96 40.96s-18.336 40.96-40.96 40.96h-286.72v286.72c0 22.624-18.336 40.96-40.96 40.96s-40.96-18.336-40.96-40.96v-368.64zM40.96 550.4h368.64v368.64c0 22.624-18.336 40.96-40.96 40.96s-40.96-18.336-40.96-40.96v-286.72h-286.72c-22.624 0-40.96-18.336-40.96-40.96s18.336-40.96 40.96-40.96z" />
<glyph unicode="&#xe94d;" glyph-name="unmute" horiz-adv-x="4668" d="M654.643 448c0 0.037 0 0.082 0 0.126 0 35.41-20.33 66.072-49.955 80.951l-0.521 0.237v-44.447l49.271-49.271c0.604 3.594 1.036 7.87 1.2 12.214l0.006 0.19zM704.948 448c-0.006-19.202-3.998-37.47-11.193-54.024l0.339 0.877 30.406-30.32c13.020 24.057 20.673 52.664 20.673 83.058 0 0.144 0 0.288-0.001 0.431v-0.022c-0.192 85.633-59.858 157.277-139.873 175.826l-1.22 0.238v-41.346c58.606-17.858 100.537-71.371 100.694-134.7v-0.018zM408.549 628.888l-25.841-25.841 95.182-94.751h-95.096v-120.592h80.538l100.522-100.694v135.408l85.534-85.534c-12.841-10.176-27.887-18.261-44.234-23.419l-0.988-0.269v-41.518c28.585 6.75 53.544 19.412 74.567 36.689l-0.317-0.253 41.087-41.26 25.841 25.841-180.888 180.888zM563.596 608.818l-42.035-42.121 42.035-42.035zM956.124 415.44l-16.366-17.227v-53.75h-25.841v217.41h25.841v-131.445l13.954 17.227 47.72 50.304h32.215l-59.521-63.914 66.498-89.066h-30.751zM1088.861 344.635h-25.841v217.238h25.841zM1130.896 537.927c-0.003 0.122-0.005 0.265-0.005 0.408 0 3.974 1.471 7.604 3.897 10.377l-0.016-0.018c3.042 2.753 7.095 4.438 11.542 4.438s8.501-1.685 11.557-4.452l-0.015 0.013c2.462-2.722 3.969-6.348 3.969-10.326 0-0.155-0.002-0.31-0.007-0.464l0.001 0.023c0.006-0.159 0.010-0.346 0.010-0.533 0-3.894-1.511-7.436-3.979-10.070l0.007 0.008c-2.838-3.197-6.959-5.201-11.547-5.201-8.515 0-15.419 6.903-15.419 15.419 0 0.133 0.002 0.265 0.005 0.397v-0.020zM1159.149 344.291h-25.841v153.324h25.841zM1243.736 415.44l-16.366-17.227v-53.75h-25.841v217.41h25.841v-131.445l13.954 17.227 47.72 50.304h31.785l-59.521-63.914 66.412-89.066h-30.665zM1372.598 497.615l0.861-19.209c10.282 13.467 26.345 22.069 44.416 22.069 0.495 0 0.989-0.006 1.482-0.019l-0.073 0.002q48.495 0 48.926-54.697v-101.125h-25.841v101.211c0.062 0.785 0.098 1.7 0.098 2.624 0 8.324-2.894 15.973-7.731 21.994l0.053-0.069c-5.385 4.978-12.613 8.030-20.554 8.030-0.891 0-1.772-0.038-2.644-0.114l0.113 0.008c-0.182 0.003-0.397 0.005-0.613 0.005-8.148 0-15.702-2.548-21.906-6.892l0.123 0.082c-6.361-4.607-11.442-10.598-14.864-17.553l-0.124-0.278v-109.050h-25.841v152.98zM1507.833 537.927c-0.003 0.122-0.005 0.265-0.005 0.408 0 3.974 1.471 7.604 3.897 10.377l-0.016-0.018c2.643 2.688 6.318 4.353 10.382 4.353 0.408 0 0.813-0.017 1.213-0.050l-0.052 0.003c0.332 0.026 0.718 0.041 1.108 0.041 4.107 0 7.826-1.661 10.521-4.348v0c2.462-2.78 3.965-6.457 3.965-10.486 0-0.099-0.001-0.197-0.003-0.296v0.015c0.013-0.226 0.020-0.491 0.020-0.758 0-7.849-6.363-14.213-14.213-14.213-0.492 0-0.979 0.025-1.459 0.074l0.060-0.005c-0.395-0.039-0.853-0.062-1.317-0.062-7.802 0-14.127 6.325-14.127 14.127 0 0.294 0.009 0.587 0.027 0.877l-0.002-0.040zM1536.086 344.291h-25.841v153.324h25.841zM1604.996 497.615v-170.724q0-44.016-40.054-44.102c-0.103-0.001-0.224-0.001-0.346-0.001-5.575 0-10.936 0.915-15.941 2.602l0.352-0.103v20.845c3.175-0.723 6.82-1.137 10.563-1.137 0.466 0 0.93 0.006 1.392 0.019l-0.068-0.001c0.379-0.029 0.821-0.045 1.267-0.045 4.68 0 8.934 1.82 12.094 4.792l-0.009-0.009c2.923 3.886 4.682 8.792 4.682 14.11 0 0.825-0.042 1.64-0.125 2.443l0.008-0.101v171.413zM1576.312 537.927c-0.002 0.087-0.003 0.19-0.003 0.293 0 3.983 1.469 7.623 3.895 10.407l-0.016-0.019c2.622 2.731 6.304 4.427 10.381 4.427 0.348 0 0.693-0.012 1.035-0.037l-0.046 0.003c0.332 0.026 0.718 0.041 1.108 0.041 4.107 0 7.826-1.661 10.521-4.348v0c2.462-2.722 3.969-6.348 3.969-10.326 0-0.155-0.002-0.31-0.007-0.464l0.001 0.023c0.006-0.159 0.010-0.346 0.010-0.533 0-3.894-1.511-7.436-3.979-10.070l0.007 0.008c-2.746-2.683-6.505-4.338-10.652-4.338-0.344 0-0.685 0.011-1.023 0.034l0.046-0.002c-0.313-0.024-0.678-0.037-1.047-0.037-4.071 0-7.754 1.661-10.408 4.343l-0.001 0.001c-2.359 2.683-3.798 6.224-3.798 10.101 0 0.174 0.003 0.346 0.009 0.518l-0.001-0.025zM1646.342 303.548l-14.902 10.423c8.032 10.464 13.108 23.574 13.776 37.835l0.006 0.151v23.602h25.841v-20.501c-0.106-10.421-2.673-20.218-7.146-28.871l0.169 0.359c-4.334-9.113-10.321-16.781-17.64-22.914l-0.104-0.085zM1870.213 344.635c-1.957 4.729-3.279 10.206-3.694 15.935l-0.010 0.173c-10.685-11.665-25.985-18.952-42.988-18.952-0.18 0-0.359 0.001-0.539 0.002h0.027c-0.66-0.029-1.435-0.045-2.214-0.045-13.373 0-25.617 4.838-35.076 12.858l0.079-0.065c-8.889 7.674-14.481 18.958-14.481 31.548 0 0.326 0.004 0.65 0.011 0.974l-0.001-0.048c-0.028 0.582-0.044 1.263-0.044 1.948 0 14.473 7.139 27.279 18.088 35.088l0.131 0.089c13.008 8.419 28.907 13.423 45.976 13.423 1.826 0 3.638-0.057 5.436-0.17l-0.246 0.012h25.41v12.059c0.025 0.453 0.039 0.982 0.039 1.515 0 7.887-3.136 15.041-8.229 20.285l0.007-0.007c-5.838 5.376-13.664 8.671-22.259 8.671-0.685 0-1.364-0.021-2.038-0.062l0.093 0.005c-0.359 0.012-0.78 0.019-1.203 0.019-8.333 0-16.047-2.653-22.342-7.161l0.116 0.079c-5.684-3.721-9.404-10.032-9.475-17.217v-0.011h-26.358c0.341 8.467 3.542 16.127 8.655 22.1l-0.041-0.049c5.737 7.436 13.152 13.304 21.695 17.087l0.356 0.141c8.757 3.922 18.98 6.207 29.736 6.207 0.296 0 0.592-0.002 0.887-0.005h-0.045c1.053 0.065 2.285 0.102 3.525 0.102 14.421 0 27.673-5.006 38.114-13.374l-0.12 0.093c9.553-8.756 15.52-21.291 15.52-35.219 0-0.428-0.006-0.855-0.017-1.28l0.001 0.063v-70.46c-0.043-1.012-0.068-2.2-0.068-3.393 0-10.821 2.016-21.172 5.692-30.697l-0.198 0.583v-2.24zM1827.144 364.533c8.609 0.026 16.659 2.391 23.557 6.492l-0.214-0.118c6.9 3.805 12.37 9.469 15.835 16.32l0.1 0.218v31.44h-20.501q-48.065 0-48.065-28.167c-0.019-0.357-0.030-0.775-0.030-1.196 0-7.177 3.169-13.615 8.185-17.989l0.028-0.024c5.362-4.355 12.272-6.992 19.798-6.992 0.338 0 0.675 0.005 1.010 0.016l-0.049-0.001zM2062.902 419.402c0.067-1.307 0.105-2.837 0.105-4.377 0-19.444-6.101-37.462-16.492-52.247l0.193 0.29c-9.506-12.967-24.682-21.291-41.803-21.291-0.445 0-0.889 0.006-1.332 0.017l0.065-0.001c-0.836-0.047-1.814-0.073-2.798-0.073-17.050 0-32.231 8.003-41.992 20.458l-0.088 0.116-1.206-17.227h-24.118v216.808h25.841v-81.055c9.822 12.057 24.668 19.696 41.299 19.696 0.865 0 1.724-0.021 2.579-0.061l-0.121 0.005c0.634 0.028 1.377 0.044 2.124 0.044 17.020 0 32.119-8.227 41.536-20.922l0.099-0.139c10.069-14.733 16.078-32.936 16.078-52.541 0-1.819-0.052-3.626-0.154-5.419l0.011 0.248zM2037.061 422.417c0.085 1.294 0.133 2.805 0.133 4.328 0 13.67-3.898 26.43-10.642 37.228l0.172-0.296c-6.313 8.922-16.591 14.676-28.212 14.676-0.529 0-1.056-0.012-1.579-0.036l0.074 0.003c-0.426 0.017-0.925 0.026-1.427 0.026-16.107 0-29.909-9.868-35.69-23.888l-0.094-0.257v-66.153c6.158-14.254 20.095-24.049 36.32-24.049 0.404 0 0.807 0.006 1.208 0.018l-0.059-0.001c0.42-0.019 0.912-0.029 1.406-0.029 11.503 0 21.67 5.723 27.808 14.477l0.072 0.109c6.525 10.904 10.384 24.054 10.384 38.106 0 2.019-0.080 4.020-0.236 6l0.017-0.261zM2144.301 382.88l35.661 114.649h27.995l-61.502-176.668q-14.213-38.159-45.394-38.159l-4.91 0.431-9.82 1.809v21.362l6.805-0.948c0.627-0.041 1.36-0.064 2.099-0.064 6.933 0 13.388 2.048 18.793 5.572l-0.133-0.081c5.852 5.044 10.15 11.744 12.171 19.37l0.061 0.269 5.771 15.505-54.611 151.343h28.598zM2438.546 380.641l29.459 116.974h25.841l-44.533-152.98h-21.19l-36.953 115.769-36.178-115.941h-21.276l-44.361 152.98h25.841l30.32-114.563 35.575 114.563h21.104zM2552.42 467.553l22.31 8.614v-17.227l-22.31-8.614v-105.69h-26.272v95.44l-20.415-7.752v17.227l20.415 7.752v104.571h26.272zM2692.91 345.583c-1.635 4.45-2.769 9.606-3.175 14.965l-0.012 0.195c-10.671-11.665-25.959-18.953-42.95-18.953-0.193 0-0.386 0.001-0.579 0.003h0.029c-0.663-0.029-1.44-0.046-2.221-0.046-13.343 0-25.556 4.839-34.98 12.858l0.076-0.063c-8.938 7.646-14.568 18.937-14.568 31.542 0 0.328 0.004 0.654 0.011 0.98l-0.001-0.048c-0.028 0.582-0.044 1.263-0.044 1.948 0 14.473 7.139 27.279 18.088 35.088l0.131 0.089c13.008 8.419 28.907 13.423 45.976 13.423 1.826 0 3.638-0.057 5.436-0.17l-0.246 0.012h25.841v12.059c0.013 0.328 0.021 0.713 0.021 1.099 0 8.093-3.302 15.414-8.632 20.691l-0.002 0.002c-5.825 5.374-13.639 8.669-22.222 8.669-0.667 0-1.329-0.020-1.987-0.059l0.090 0.004c-0.375 0.013-0.817 0.021-1.26 0.021-8.343 0-16.067-2.654-22.372-7.163l0.117 0.079c-5.662-3.742-9.372-10.040-9.475-17.212v-0.015h-26.358c0.19 8.448 3.247 16.148 8.233 22.199l-0.050-0.062c5.737 7.436 13.152 13.304 21.695 17.087l0.356 0.141c8.764 3.923 18.993 6.207 29.756 6.207 0.32 0 0.639-0.002 0.957-0.006h-0.048c1.097 0.071 2.378 0.112 3.668 0.112 14.348 0 27.526-5.012 37.878-13.38l-0.114 0.089c9.553-8.756 15.52-21.291 15.52-35.219 0-0.428-0.006-0.855-0.017-1.28l0.001 0.063v-70.46c-0.043-1.012-0.068-2.2-0.068-3.393 0-10.821 2.016-21.172 5.692-30.697l-0.198 0.583v-2.24h-4.651l-8.614-6.374c-8.603-5.531-14.564-14.531-15.917-24.977l-0.019-0.175c0-6.805 3.618-10.25 11.026-10.25 5.19 0.152 10.031 1.505 14.3 3.789l-0.173-0.085 1.809-17.227c-6.239-3.844-13.8-6.121-21.892-6.121-0.238 0-0.475 0.002-0.712 0.006h0.036c-0.611-0.053-1.322-0.083-2.040-0.083-13.939 0-25.238 11.3-25.238 25.238 0 0.605 0.021 1.205 0.063 1.799l-0.005-0.080q0.345 19.812 24.032 34.799zM2649.841 364.533c8.609 0.013 16.662 2.379 23.555 6.491l-0.211-0.117c6.905 3.832 12.394 9.487 15.919 16.321l0.102 0.218v31.44h-20.587q-48.065 0-48.065-28.167c-0.019-0.357-0.030-0.775-0.030-1.196 0-7.177 3.169-13.615 8.185-17.989l0.028-0.024c5.366-4.366 12.285-7.011 19.821-7.011 0.512 0 1.020 0.012 1.526 0.036l-0.071-0.003zM2817.895 363.155c0.129-0.002 0.281-0.002 0.434-0.002 9.155 0 17.55 3.253 24.092 8.667l-0.063-0.051c6.508 5.039 10.866 12.583 11.62 21.162l0.008 0.114h24.721c-0.567-9.489-3.874-18.108-9.134-25.192l0.089 0.126c-5.741-8.010-13.206-14.427-21.88-18.794l-0.343-0.157c-8.501-4.452-18.57-7.064-29.249-7.064-0.104 0-0.208 0-0.312 0.001h0.016c-0.826-0.039-1.793-0.061-2.766-0.061-18.605 0-35.33 8.047-46.885 20.85l-0.049 0.056c-11.563 14.166-18.569 32.448-18.569 52.366 0 1.669 0.049 3.326 0.146 4.97l-0.011-0.227v4.393c-0.012 0.556-0.019 1.211-0.019 1.868 0 13.718 3.022 26.729 8.437 38.406l-0.235-0.565c5.199 11.27 13.26 20.465 23.266 26.897l0.249 0.15c9.901 6.019 21.872 9.582 34.675 9.582 0.589 0 1.176-0.008 1.761-0.023l-0.087 0.002c0.74 0.032 1.608 0.050 2.48 0.050 15.615 0 29.859-5.869 40.648-15.52l-0.059 0.051c10.998-9.892 17.949-24.096 18.175-39.928v-0.040h-24.721c-0.796 9.487-5.177 17.82-11.768 23.745l-0.033 0.029c-6.178 5.928-14.582 9.577-23.838 9.577-0.371 0-0.741-0.006-1.109-0.018l0.054 0.001c-0.525 0.027-1.139 0.042-1.757 0.042-11.853 0-22.393-5.62-29.102-14.341l-0.064-0.086c-6.949-10.427-11.089-23.243-11.089-37.027 0-1.58 0.054-3.148 0.162-4.701l-0.012 0.21v-4.91c-0.086-1.265-0.135-2.742-0.135-4.231 0-13.599 4.103-26.24 11.14-36.752l-0.151 0.239c6.78-8.53 17.155-13.951 28.796-13.951 0.87 0 1.732 0.030 2.587 0.090l-0.115-0.006zM2932.802 365.653h89.497v-21.362h-121.454v19.553l84.415 111.978h-83.209v21.793h116.027v-18.52zM3101.803 382.88l35.661 114.649h27.995l-61.502-176.668q-14.385-38.159-45.48-38.159l-4.91 0.431-9.734 1.809v21.362l7.063-0.603c0.604-0.038 1.309-0.059 2.020-0.059 6.93 0 13.383 2.046 18.786 5.567l-0.133-0.081c5.85 5.030 10.126 11.739 12.088 19.376l0.057 0.263 5.857 15.505-54.611 151.343h28.598zM3248.323 363.155c0.129-0.002 0.281-0.002 0.434-0.002 9.155 0 17.55 3.253 24.092 8.667l-0.063-0.051c6.508 5.039 10.866 12.583 11.62 21.162l0.008 0.114h24.721c-0.567-9.489-3.874-18.108-9.134-25.192l0.089 0.126c-5.741-8.010-13.206-14.427-21.88-18.794l-0.343-0.157c-8.501-4.452-18.57-7.064-29.249-7.064-0.104 0-0.208 0-0.312 0.001h0.016c-0.826-0.039-1.793-0.061-2.766-0.061-18.605 0-35.33 8.047-46.885 20.85l-0.049 0.056c-11.563 14.166-18.569 32.448-18.569 52.366 0 1.669 0.049 3.326 0.146 4.97l-0.011-0.227v4.393c-0.012 0.556-0.019 1.211-0.019 1.868 0 13.718 3.022 26.729 8.437 38.406l-0.235-0.565c5.199 11.27 13.26 20.465 23.266 26.897l0.249 0.15c9.901 6.019 21.872 9.582 34.675 9.582 0.589 0 1.176-0.008 1.761-0.023l-0.087 0.002c0.74 0.032 1.608 0.050 2.48 0.050 15.615 0 29.859-5.869 40.648-15.52l-0.059 0.051c10.998-9.892 17.949-24.096 18.175-39.928v-0.040h-25.066c-0.628 9.411-4.801 17.742-11.18 23.757l-0.018 0.017c-6.178 5.928-14.582 9.577-23.838 9.577-0.371 0-0.741-0.006-1.109-0.018l0.054 0.001c-0.525 0.027-1.139 0.042-1.757 0.042-11.853 0-22.393-5.62-29.102-14.341l-0.064-0.086c-6.949-10.427-11.089-23.243-11.089-37.027 0-1.58 0.054-3.148 0.162-4.701l-0.012 0.21v-4.91c-0.086-1.265-0.135-2.742-0.135-4.231 0-13.599 4.103-26.24 11.14-36.752l-0.151 0.239c6.78-8.521 17.15-13.936 28.784-13.936 0.783 0 1.56 0.025 2.331 0.073l-0.106-0.005zM3255.3 561.873h31.699l-37.987-41.604h-21.017zM3403.973 422.417c-0.070 1.324-0.109 2.873-0.109 4.432 0 19.601 6.271 37.737 16.916 52.512l-0.182-0.266c10.522 13.008 26.483 21.257 44.37 21.257 16.487 0 31.337-7.007 41.734-18.206l0.033-0.036v79.763h25.841v-217.238h-24.032l-1.292 16.366c-9.865-11.814-24.6-19.276-41.077-19.276-0.943 0-1.88 0.024-2.811 0.073l0.13-0.005c-0.176-0.002-0.385-0.003-0.593-0.003-17.431 0-32.87 8.53-42.37 21.644l-0.105 0.152c-10.514 14.569-16.817 32.785-16.817 52.473 0 1.54 0.039 3.071 0.115 4.592l-0.009-0.214zM3429.814 419.402c-0.068-1.14-0.107-2.474-0.107-3.816 0-13.721 4.056-26.495 11.034-37.188l-0.16 0.262c6.313-8.922 16.591-14.676 28.212-14.676 0.529 0 1.056 0.012 1.579 0.036l-0.074-0.003c0.484-0.022 1.052-0.035 1.623-0.035 15.341 0 28.568 9.053 34.629 22.109l0.098 0.236v70.288c-6.355 12.966-19.456 21.735-34.606 21.735-0.522 0-1.042-0.010-1.559-0.031l0.074 0.002c-0.406 0.017-0.883 0.027-1.363 0.027-11.797 0-22.226-5.855-28.539-14.818l-0.074-0.11c-6.725-11.008-10.707-24.328-10.707-38.577 0-1.914 0.072-3.811 0.213-5.689l-0.015 0.25zM3598.299 365.653h89.497v-21.362h-121.712v19.553l84.415 111.978h-83.209v21.793h116.027v-18.52zM3639.472 561.529h31.699l-37.987-41.604h-21.017zM3852.748 380.641l29.459 116.974h25.841l-44.533-152.98h-20.931l-37.211 115.769-36.178-115.941h-21.276l-44.016 153.152h25.841l29.89-114.735 35.661 114.563h21.104zM3935.096 537.927c-0.003 0.122-0.005 0.265-0.005 0.408 0 3.974 1.471 7.604 3.897 10.377l-0.016-0.018c3.042 2.753 7.095 4.438 11.542 4.438s8.501-1.685 11.557-4.452l-0.015 0.013c2.462-2.722 3.969-6.348 3.969-10.326 0-0.155-0.002-0.31-0.007-0.464l0.001 0.023c0.006-0.159 0.010-0.346 0.010-0.533 0-3.894-1.511-7.436-3.979-10.070l0.007 0.008c-2.838-3.197-6.959-5.201-11.547-5.201-8.515 0-15.419 6.903-15.419 15.419 0 0.133 0.002 0.265 0.005 0.397v-0.020zM3963.349 344.291h-25.841v153.324h25.841zM4126.493 371.338c-6.478-9.937-15.421-17.773-25.976-22.75l-0.382-0.162-8.614-6.374c-10.595-8.614-15.935-17.227-15.935-25.152 0-6.805 3.704-10.25 11.026-10.25 5.19 0.142 10.033 1.496 14.297 3.788l-0.171-0.084 1.895-17.227c-6.318-3.844-13.957-6.119-22.128-6.119-0.185 0-0.37 0.001-0.555 0.003h0.028c-0.458-0.030-0.994-0.047-1.533-0.047-13.891 0-25.152 11.261-25.152 25.152 0 0.653 0.025 1.3 0.074 1.941l-0.005-0.085c0.35 11.285 5.616 21.274 13.717 27.943l0.065 0.052c-0.427-0.010-0.931-0.016-1.436-0.016-19.043 0-36.199 8.078-48.229 20.993l-0.037 0.040c-11.776 13.421-18.961 31.124-18.961 50.506 0 1.353 0.035 2.698 0.104 4.033l-0.008-0.187v4.738c-0.010 0.495-0.015 1.078-0.015 1.662 0 14.153 3.181 27.564 8.868 39.555l-0.239-0.561c5.503 11.406 13.695 20.759 23.784 27.494l0.249 0.156c9.514 6.319 21.201 10.082 33.767 10.082 0.242 0 0.484-0.001 0.725-0.004h-0.037c0.935 0.055 2.029 0.086 3.13 0.086 17.223 0 32.667-7.612 43.153-19.656l0.059-0.069c10.494-14.001 16.804-31.664 16.804-50.801 0-1.947-0.065-3.878-0.194-5.792l0.014 0.259v-10.853h-103.365c-0.008-0.344-0.012-0.749-0.012-1.155 0-13.558 4.996-25.949 13.247-35.433l-0.056 0.065c7.656-8.587 18.749-13.969 31.1-13.969 0.392 0 0.783 0.005 1.173 0.016l-0.057-0.001c0.397-0.012 0.865-0.019 1.334-0.019 8.128 0 15.771 2.081 22.423 5.74l-0.241-0.122c6.623 4.009 12.198 9.035 16.691 14.93l0.106 0.144zM4065.68 479.009c-0.193 0.004-0.42 0.006-0.648 0.006-10.29 0-19.542-4.444-25.942-11.518l-0.027-0.030c-7.501-8.699-12.368-19.859-13.255-32.122l-0.010-0.18h76.662v1.981c-0.081 11.72-4.192 22.465-11.014 30.933l0.075-0.096c-6.055 6.792-14.829 11.049-24.598 11.049-0.437 0-0.873-0.009-1.306-0.025l0.062 0.002zM4201.432 415.44l-16.452-17.227v-53.75h-25.841v217.41h25.841v-131.445l14.040 17.227 47.548 49.96h31.871l-59.607-63.914 66.498-89.066h-30.148z" />
<glyph unicode="&#xe94e;" glyph-name="pause_small" d="M320 224h128v448h-128v-448zM576 672v-448h128v448h-128z" />
<glyph unicode="&#xe94f;" d="M184.32 960h655.36c101.797 0 184.32-82.523 184.32-184.32v-655.36c0-101.797-82.523-184.32-184.32-184.32h-655.36c-101.797 0-184.32 82.523-184.32 184.32v655.36c0 101.797 82.523 184.32 184.32 184.32z" />
<glyph unicode="&#xe950;" d="M358.4 268.8h102.4v358.4h-102.4v-358.4zM563.2 627.2v-358.4h102.4v358.4h-102.4z" />
<glyph unicode="&#xe951;" glyph-name="play_small" d="M352 672v-448l352 224z" />
<glyph unicode="&#xe952;" d="M184.32 960h655.36c101.797 0 184.32-82.523 184.32-184.32v-655.36c0-101.797-82.523-184.32-184.32-184.32h-655.36c-101.797 0-184.32 82.523-184.32 184.32v655.36c0 101.797 82.523 184.32 184.32 184.32z" />
<glyph unicode="&#xe953;" d="M399.36 627.2v-358.4l281.6 179.2z" />
<glyph unicode="&#xe954;" glyph-name="hbo" horiz-adv-x="2479" d="M726.4-59.733h-272v388.8h-176v-388.8h-278.4v1003.2h278.4v-373.867h176v373.867h272v-1003.2zM1973.867-64c278.4 0 506.133 232 506.133 514.667 0 286.933-227.2 509.333-506.133 509.333-282.133 0-424.533-205.333-459.2-289.067 0 123.733-123.733 272.533-267.733 272.533h-464.533v-1002.667h432.533c176 0 299.733 150.933 299.733 282.667 38.933-82.133 177.067-287.467 459.2-287.467zM1180.267 343.467c40 0 72.533-38.933 72.533-83.733 0-46.933-32.533-85.867-72.533-85.867h-138.133v169.6h138.133zM1180.267 720c40 0 72.533-38.933 72.533-83.733s-32.533-83.733-72.533-83.733h-138.133v167.467h138.133zM1363.2 450.667c32.533 2.133 84.8 38.933 104.533 61.333-8-26.667-8-111.467 0-138.667-22.4 32.533-72.533 72-104.533 77.333zM1719.467 450.667c0 140.8 113.6 254.4 253.867 254.4s253.867-114.133 253.867-254.4c0-141.867-113.6-255.467-253.867-255.467s-253.867 113.6-253.867 255.467zM1973.867 249.6c108.267 0 199.467 89.067 199.467 201.067 0 111.467-91.2 200-199.467 200-111.467 0-200.533-88-200.533-200 0-111.467 89.067-201.067 200.533-201.067zM2372.267 885.333c0 22.933 17.067 40.533 38.933 40.533s38.933-17.6 38.933-40.533c0-23.467-17.067-40.533-38.933-40.533s-38.933 17.067-38.933 40.533zM2411.2 836.267c26.133 0 48.533 20.8 48.533 48.533s-22.4 48.533-48.533 48.533c-26.667 0-49.067-20.8-49.067-48.533 0.533-27.733 22.933-48.533 49.067-48.533zM2401.067 881.6h9.6l14.4-24.533h9.6l-16 24.533c8 1.067 14.4 5.333 14.4 15.467 0 11.2-6.4 16-19.733 16h-21.333v-56h8.533v24.533zM2401.067 888.533v17.6h11.2c5.867 0 12.267-1.067 12.267-8 0-8.533-6.4-9.067-13.333-9.067h-10.133z" />
<glyph unicode="&#xe955;" d="M519.98 581.429c12.571 0 22.286 3.476 29.143 10.429s10.286 15.667 10.286 26.143c0 10.667-3.429 19.524-10.286 26.571s-16.571 10.571-29.143 10.571c-12.571 0-22.238-3.524-29-10.571s-10.143-15.905-10.143-26.571c0-10.476 3.381-19.19 10.143-26.143s16.429-10.429 29-10.429zM554.551 228.571v309.143h-69.429v-309.143h69.429z" />
<glyph unicode="&#xe956;" d="M512 941.714c-272.671 0-493.714-221.043-493.714-493.714s221.043-493.714 493.714-493.714c272.671 0 493.714 221.043 493.714 493.714s-221.043 493.714-493.714 493.714zM512 905.143c252.473 0 457.143-204.67 457.143-457.143s-204.67-457.143-457.143-457.143c-252.473 0-457.143 204.67-457.143 457.143s204.67 457.143 457.143 457.143z" />
<glyph unicode="&#xe957;" glyph-name="startover" d="M512 960c-282.77 0-512-229.23-512-512s229.23-512 512-512c282.77 0 512 229.23 512 512 0 0 0 0 0 0-0.424 282.599-229.401 511.576-511.959 512zM512 23.117c-234.412 0.142-424.385 190.203-424.385 424.634 0 234.519 190.115 424.634 424.634 424.634 234.431 0 424.492-189.973 424.634-424.371-0.283-234.506-190.371-424.506-424.869-424.648zM499.057 352.171c-1.166-0.049-2.534-0.077-3.908-0.077-52.912 0-96.184 41.276-99.374 93.385-0.268 2.719-0.412 5.549-0.412 8.413 0 41.575 30.518 76.022 70.375 82.162l0.464-39.268 99.562 70.938-99.562 99.562v-44.305c-74.672-12.196-162.536-92.344-162.536-189.667 0.986-105.923 87.081-191.409 193.143-191.409 0.090 0 0.181 0 0.271 0 107.359 3.324 193.137 91.162 193.137 199.035 0 0.032 0 0.063 0 0.095v21.899h-91.597c-0.249-74.921-44.803-110.763-99.562-110.763z" />
<glyph unicode="&#xe958;" glyph-name="play" d="M512-64c-282.77 0-512 229.23-512 512s229.23 512 512 512c282.77 0 512-229.23 512-512-0.271-282.661-229.339-511.729-511.974-512zM512 912.372c-256.466 0-464.372-207.906-464.372-464.372s207.906-464.372 464.372-464.372c256.466 0 464.372 207.906 464.372 464.372-1.62 255.333-208.849 461.725-464.347 461.991zM440.082 637.083l265.287-189.083-265.287-189.083v378.166z" />
<glyph unicode="&#xe959;" glyph-name="mobile-search" d="M464.96 264.064c-127.68 0-230.976 103.296-230.976 230.976s103.296 231.008 230.976 231.008c127.712 0 231.008-103.36 231.008-231.040s-103.296-230.944-231.008-230.944zM859.328 135.968l-169.28 169.28c-3.040 3.040-6.976 4.64-11.136 4.64h-13.536c45.024 48.64 72.576 113.6 72.576 185.152 0 150.784-122.176 272.96-272.992 272.96-150.784 0-272.96-122.176-272.96-272.96s122.176-272.96 272.96-272.96c71.52 0 136.512 27.52 185.184 72.416v-13.376c0-4.192 1.728-8.128 4.608-11.136l169.28-169.28c6.176-6.208 16.16-6.208 22.304 0l12.992 12.992c6.208 6.144 6.208 16.128 0 22.272z" />
<glyph unicode="&#xe95a;" glyph-name="backward--no-amount" horiz-adv-x="1160" d="M135.711 422.092l312.135-160.386-90.063-57.986c71.557-83.894 176.424-133.243 288.694-133.243 209.735 0 379.99 170.255 379.99 379.99s-170.255 378.757-379.99 378.757v130.776c281.292 0 510.766-229.475 510.766-510.766s-229.475-509.533-510.766-509.533c-156.684 0-303.499 71.557-399.73 192.463l-94.998-61.687-16.039 351.614z" />
<glyph unicode="&#xe95b;" glyph-name="forward--no-amount" horiz-adv-x="1160" d="M1021.533 422.092l-312.135-160.386 90.063-57.986c-71.557-85.128-176.424-134.477-288.694-134.477-209.735 0-379.99 170.255-379.99 379.99s170.255 379.99 379.99 379.99v130.776c-281.292 0-510.766-229.475-510.766-510.766s229.475-510.766 510.766-510.766c156.684 0 303.499 71.557 399.73 192.463l94.998-61.687 16.039 352.848z" />
<glyph unicode="&#xe95c;" glyph-name="picture-in-picture" d="M823.713 491.098h-338.512v-258.586h338.512v258.586zM739.085 318.707h-169.256v86.195h169.256v-86.195zM908.342 835.879h-761.653c-46.545 0-84.628-37.926-84.628-85.333v-604.229c0-47.407 38.083-86.195 84.628-86.195h761.653c46.545 0 84.628 38.788 84.628 86.195v604.229c0 47.407-38.083 85.333-84.628 85.333zM908.342 145.455h-761.653v605.522h761.653v-605.522z" />
<glyph unicode="&#xe95d;" glyph-name="cloud" d="M825.6 531.627c-29.013 147.2-158.293 257.707-313.6 257.707-123.307 0-230.4-69.973-283.733-172.373-128.427-13.653-228.267-122.453-228.267-254.293 0-141.227 114.773-256 256-256h554.667c117.76 0 213.333 95.573 213.333 213.333 0 112.64-87.467 203.947-198.4 211.627zM810.667 192h-554.667c-94.293 0-170.667 76.373-170.667 170.667s76.373 170.667 170.667 170.667h30.293c28.16 98.56 118.187 170.667 225.707 170.667 129.707 0 234.667-104.96 234.667-234.667v-21.333h64c70.827 0 128-57.173 128-128s-57.173-128-128-128z" />
<glyph unicode="&#xe95e;" glyph-name="devices-alternate" d="M946.133 487.072l-197.333 0.395c-21.707 0-39.467-17.76-39.467-39.467v-355.2c0-21.707 17.76-39.467 39.467-39.467h197.333c21.707 0 39.467 17.76 39.467 39.467v355.2c0 21.707-17.76 39.072-39.467 39.072zM946.133 132.267h-197.333v276.267h197.333v-276.267zM827.733 842.667h-710.4c-43.808 0-78.933-35.125-78.933-78.933v-473.6c0-43.413 35.125-78.933 78.933-78.933h276.267v-78.933h-78.933v-78.933h315.733v78.933h-78.933v78.933h78.933v78.933h-513.067v473.6h710.4v-197.333h78.933v197.333c0 43.808-35.52 78.933-78.933 78.933zM510.816 566.4l-38.283 118.4-38.283-118.4h-119.584l97.483-69.461-37.099-114.848 97.483 71.040 97.483-71.040-37.099 114.848 97.483 69.461h-119.584z" />
<glyph unicode="&#xe95f;" glyph-name="gb" d="M323.308-29.868c-27.836 0-54.356 4.84-79.536 14.484s-47.428 23.924-66.778 42.86c-19.324 18.904-34.584 42.32-45.696 70.188-11.225 27.864-16.784 60.032-16.784 96.468 0 47.576 9.348 88.048 28.076 121.408 18.756 33.332 43.904 58.77 75.532 76.308 31.628 17.497 66.692 26.284 105.16 26.284 56.922 0 101.636-12.844 134.192-38.528s54.328-62.032 65.408-109.012l-85.36-11.948c-8.004 25.088-21.056 45.16-39.124 60.18-18.16 15.024-41.336 22.64-69.588 22.848-28.044 0.388-51.372-5.496-69.97-17.62-18.636-12.156-32.584-29.388-41.904-51.668-9.32-22.312-13.976-48.384-13.976-78.252s4.66-55.76 13.976-77.652c9.32-21.921 23.296-38.952 41.904-51.072s41.932-18.428 70.008-18.816c19.024-0.417 36.264 2.776 51.728 9.556 15.44 6.745 28.492 17.412 39.124 31.956 10.664 14.544 18.22 33.152 22.7 55.852h-69.948v62.72h159.040c0.417-2.6 0.716-7.168 0.896-13.74 0.208-6.572 0.3-10.364 0.3-11.348 0-41.216-8.572-77.744-25.744-109.612-17.204-31.868-41.456-56.808-72.784-74.816-31.3-18.008-68.244-27.028-110.804-27.028zM676.836 49.788h102.144c11.225 0 21.204 2.42 30.016 7.316 8.752 4.84 15.62 11.708 20.608 20.52 5.016 8.812 7.496 19.233 7.496 31.272 0 10.572-2.12 20.012-6.42 28.312-4.272 8.272-10.752 14.872-19.412 19.737s-19.412 7.316-32.256 7.316h-102.171v-114.48zM676.836 243.264h90.529c9.377 0 17.74 1.672 25.088 4.988s13.14 8.452 17.441 15.412c4.3 6.928 6.42 15.92 6.42 26.88 0 13.708-4.18 25.236-12.544 34.556-8.364 9.348-20.488 14.008-36.408 14.008h-90.529v-95.849zM592.4-29.868v448h176.184c31.42 0 56.808-6.392 76.16-19.116 19.384-12.784 33.576-28.792 42.536-48.084s13.44-38.828 13.44-58.48c0-25.088-5.524-45.964-16.636-62.54-11.14-16.601-26.372-27.688-45.756-33.3v15.532c27.536-5.764 48.176-18.728 61.944-38.856 13.768-20.1 20.668-42.62 20.668-67.5 0-26.76-4.868-50.324-14.516-70.636-9.708-20.308-24.46-36.228-44.204-47.756-19.8-11.5-44.68-17.264-74.668-17.264h-195.148zM746.184 866.13c-46.592 0-90.585-17.084-121.976-46.712l-91.572-76.634-49.16-40.916h0.3l-87.032-72.964c-20.696-19.564-48.204-30.224-77.652-30.224-60.48 0-109.672 46.084-109.672 103.188s49.192 103.188 109.672 103.188c29.448 0 56.956-10.664 78.968-31.448l36.556-30.524 48.864 40.916-40.768 33.9c-33.004 31.152-77.056 48.236-123.648 48.236-96.409 0-174.72-73.89-174.72-164.268s78.34-164.268 174.748-164.268c46.592 0 90.616 17.084 122.004 46.712l91.512 76.34 0.328-0.3 48.864 41.516h-0.3l86.994 72.964c20.728 19.564 48.236 30.224 77.652 30.224 60.506 0 109.7-46.084 109.7-103.188s-49.192-103.188-109.7-103.188c-29.12 0-56.922 10.664-78.93 31.448l-36.856 30.824-48.864-40.916 41.096-34.196c33.004-30.824 76.69-47.936 123.588-47.936 96.44 0 174.72 73.592 174.72 164.268s-78.28 163.968-174.72 163.968z" />
<glyph unicode="&#xe960;" glyph-name="change-avatar" horiz-adv-x="853" d="M0-64.003c0.683 31.629 0.55 63.29 2.251 94.869 2.551 47.253 14.437 92.48 33.758 135.761 32.908 73.69 82.736 133.8 149.768 179.438 54.513 37.101 114.577 60.95 180.492 69.899 75.651 10.268 149.218 2.588 219.768-26.437 99.64-40.99 174.074-109.275 222.669-204.869 30.691-60.356 44.144-124.504 44.31-191.717 0.033-18.971 0.2-37.958 0.317-56.945h-853.333zM428.357 960c81.652-3.016 145.868-39.573 189.711-108.533 60.848-95.694 49.612-216.621-25.706-300.942-94.072-105.286-262.912-96.814-345.881 17.355-66.516 91.524-67.532 207.819-0.6 298.816 44.294 60.208 105.391 91.079 182.476 93.304z" />
<glyph unicode="&#xe961;" glyph-name="history" d="M583.112 832c-212.052 0-384-171.948-384-384h-127.998l165.972-165.972 2.988-5.976 172.374 171.948h-127.998c0 165.12 133.548 298.668 298.668 298.668s298.668-133.548 298.668-298.668-133.548-298.668-298.668-298.668c-82.344 0-157.014 33.708-210.774 87.894l-60.588-60.588c69.546-69.546 165.12-112.638 271.362-112.638 212.052 0 384 171.948 384 384s-171.948 384-384 384zM540.442 618.664v-213.336l182.616-108.372 30.72 51.624-149.334 88.746v181.332h-64.002z" />
<glyph unicode="&#xe962;" glyph-name="movie" d="M783.999 856v-90.667h-90.667v90.667h-362.666v-90.667h-90.667v90.667h-90.667v-816h90.667v90.667h90.667v-90.667h362.666v90.667h90.667v-90.667h90.667v816h-90.667zM330.665 221.335h-90.667v90.667h90.667v-90.667zM330.665 402.666h-90.667v90.667h90.667v-90.667zM330.665 584.001h-90.667v90.667h90.667v-90.667zM783.999 221.335h-90.667v90.667h90.667v-90.667zM783.999 402.666h-90.667v90.667h90.667v-90.667zM783.999 584.001h-90.667v90.667h90.667v-90.667z" />
<glyph unicode="&#xe963;" glyph-name="pause-alternate" d="M208.001 93.333h202.664v709.333h-202.664v-709.333zM613.335 802.667v-709.333h202.664v709.333h-202.664z" />
<glyph unicode="&#xe964;" glyph-name="buy" horiz-adv-x="1243" d="M1019.319 960l-650.386-650.459-213.797 213.87-155.136-155.136 362.057-362.057 7.826 7.899 5.559-5.632 797.696 797.769z" />
<glyph unicode="&#xe965;" glyph-name="revert" d="M174.661 80h153.339v736h-153.339zM849.339 80v736l-460-368z" />
<glyph unicode="&#xe966;" glyph-name="konto-profil" d="M512 476.8c-23.863 0-43.2 19.337-43.2 43.2 0 23.846 19.337 43.2 43.2 43.2 23.846 0 43.2-19.354 43.2-43.2 0.033-23.83-19.255-43.167-43.068-43.2h-0.132zM512 620.8c-55.675 0-100.8-45.125-100.8-100.8s45.125-100.8 100.8-100.8c55.658 0 100.8 45.125 100.8 100.8 0.148 55.526-44.764 100.652-100.29 100.8h-0.51zM695.168 308.904c-41.143 50.112-141.12 67.112-183.168 67.112-42.064 0-141.976-17-183.184-67.112-77.168 101.146-57.748 245.722 43.414 322.922 101.162 77.184 245.738 57.765 322.939-43.397 62.965-82.533 62.965-196.992 0-279.525v0zM369.991 267.136c12.392 25.92 87.848 51.264 141.992 51.264s129.896-25.344 141.992-51.264c-83.141-66.059-200.843-66.059-283.984 0v0zM512 736c-159.058 0-288-128.942-288-288s128.942-288 288-288c159.058 0 288 128.942 288 288-0.066 159.025-128.975 287.934-288 288v0z" />
<glyph unicode="&#xe967;" glyph-name="logowanie" d="M910.222 94.025h-404.543v-101.136h404.543c55.625 0 101.136 45.511 101.136 101.136v707.951c0 55.625-45.511 101.136-101.136 101.136h-404.543v-101.136h404.543v-707.951zM455.111 700.84l-70.795-70.795 131.477-131.477h-515.793v-101.136h515.793l-131.477-131.477 70.795-70.795 252.84 252.84-252.84 252.84z" />
<glyph unicode="&#xe968;" glyph-name="nagrania" d="M512 243.2c-113.101 0-204.8 91.699-204.8 204.8 0 113.118 91.699 204.8 204.8 204.8s204.8-91.682 204.8-204.8c0-113.101-91.699-204.8-204.8-204.8zM512 704c-141.38 0-256-114.62-256-256s114.62-256 256-256c141.397 0 256 114.62 256 256-0.034 141.363-114.637 255.949-256 256zM512 576c-70.69 0-128-57.293-128-128 0-70.69 57.31-128 128-128 70.707 0 128 57.31 128 128 0 70.707-57.293 128-128 128z" />
<glyph unicode="&#xe969;" glyph-name="numer-telefonu" d="M500.364 960c-51.2 0-93.091-41.891-93.091-93.091s41.891-93.091 93.091-93.091c51.2 0 93.091 41.891 93.091 93.091s-41.891 93.091-93.091 93.091zM500.364 680.727c-51.2 0-93.091-41.891-93.091-93.091s41.891-93.091 93.091-93.091c51.2 0 93.091 41.891 93.091 93.091s-41.891 93.091-93.091 93.091zM779.636 680.727c-51.2 0-93.091-41.891-93.091-93.091s41.891-93.091 93.091-93.091c51.2 0 93.091 41.891 93.091 93.091s-41.891 93.091-93.091 93.091zM779.636 401.455c-51.2 0-93.091-41.891-93.091-93.091s41.891-93.091 93.091-93.091c51.2 0 93.091 41.891 93.091 93.091s-41.891 93.091-93.091 93.091zM500.364 401.455c-51.2 0-93.091-41.891-93.091-93.091s41.891-93.091 93.091-93.091c51.2 0 93.091 41.891 93.091 93.091s-41.891 93.091-93.091 93.091zM779.636 773.818c51.2 0 93.091 41.891 93.091 93.091s-41.891 93.091-93.091 93.091c-51.2 0-93.091-41.891-93.091-93.091s41.891-93.091 93.091-93.091zM221.091 401.455c-51.2 0-93.091-41.891-93.091-93.091s41.891-93.091 93.091-93.091c51.2 0 93.091 41.891 93.091 93.091s-41.891 93.091-93.091 93.091zM221.091 680.727c-51.2 0-93.091-41.891-93.091-93.091s41.891-93.091 93.091-93.091c51.2 0 93.091 41.891 93.091 93.091s-41.891 93.091-93.091 93.091zM221.091 960c-51.2 0-93.091-41.891-93.091-93.091s41.891-93.091 93.091-93.091c51.2 0 93.091 41.891 93.091 93.091s-41.891 93.091-93.091 93.091zM500.364 122.182c-51.2 0-93.091-41.891-93.091-93.091s41.891-93.091 93.091-93.091c51.2 0 93.091 41.891 93.091 93.091s-41.891 93.091-93.091 93.091z" />
<glyph unicode="&#xe96a;" glyph-name="przypomnienia" d="M501.344 192.006c3.734-0.059 7.448 0.315 11.12 1.063 17.879 3.584 32.796 15.124 40.056 30.976 2.816 6.498 4.235 13.469 4.172 20.48h-111.28c0.229-29.026 25.16-52.46 55.932-52.519v0zM668.222 480.83c0 80.6-45.626 148.084-125.174 165.925v17.861c0 21.74-18.672 39.384-41.704 39.384-23.053 0-41.725-17.644-41.725-39.384v-17.861c-79.84-17.841-125.174-85.070-125.174-165.925v-131.287l-55.64-52.499v-26.269h445.056v26.269l-55.64 52.499v131.287zM723.027 493.945h55.64c-4.047 81.328-46.001 156.769-114.597 206.117l-39.513-37.533c58.122-39.266 94.339-101.237 98.47-168.584v0zM378.381 662.528l-39.784 37.533c-68.783-49.191-110.779-124.73-114.597-206.117h55.64c3.985 67.465 40.348 129.515 98.741 168.584v0z" />
<glyph unicode="&#xe96b;" glyph-name="ulubione" d="M515.203 238.406l-3.2-3.232-3.2 3.232c-152.32 137.92-252.8 229.12-252.8 321.6 0 64 48 112 112 112 49.28 0 97.28-31.68 114.24-75.52h59.84c16.64 43.84 64.64 75.52 113.92 75.52 64 0 112-48 112-112 0-92.48-100.48-183.68-252.8-321.6zM656.003 736.006c-55.68 0-109.12-25.92-144-66.88-34.88 40.96-88.32 66.88-144 66.88-98.56 0-176-77.44-176-176 0-120.96 108.8-219.552 273.6-369.28l46.4-41.92 46.4 42.24c164.8 149.408 273.6 248 273.6 368.96 0 98.56-77.44 176-176 176z" />
<glyph unicode="&#xe96c;" glyph-name="urzadzenia" d="M688 290.667v205.333h117.333v-205.333h-117.333zM834.667 554.667h-176c-16.133 0-29.333-13.2-29.333-29.333v-293.333c0-16.133 13.2-29.333 29.333-29.333h176c16.133 0 29.333 13.2 29.333 29.333v293.333c0 16.133-13.2 29.333-29.333 29.333v0zM277.333 613.333v-322.667h293.333v-88h-410.667v88h58.667v322.667c0 32.267 26.4 58.667 58.667 58.667h528v-58.667h-528z" />
<glyph unicode="&#xe96d;" glyph-name="wyloguj" d="M288 672h224v64h-224c-35.2 0-64-28.8-64-64v-448c0-35.2 28.8-64 64-64h224v64h-224v448zM672 576l-45.12-45.12 50.56-50.88h-261.44v-64h261.44l-50.56-50.56 45.12-45.44 128 128-128 128z" />
<glyph unicode="&#xe96e;" glyph-name="wypo" d="M615.091 294.384l-103.090 73.593-103.090-73.593 31.1 131.944-94.74 85.98 122.096 7.995 44.634 126.095 44.327-126.39 122.115-8.015-94.74-86.059 31.388-131.55zM742.37 447.99c-1.171 33.931 24.515 62.506 57.592 64.002v128.005c1.152 33.931-24.515 62.506-57.592 64.002h-460.739c-33-1.536-58.61-30.13-57.304-64.002v-128.005c33-1.536 58.61-30.13 57.304-64.002 1.267-33.971-24.496-62.585-57.592-63.983v-128.005c-1.171-33.951 24.534-62.506 57.592-64.002h460.739c33.077 1.497 58.744 30.052 57.592 64.002v128.005c-33.077 1.497-58.763 30.052-57.592 63.983v0z" />
<glyph unicode="&#xe96f;" glyph-name="zakupy" d="M679.619 280.381c-33.524 0-60.648-27.429-60.648-60.952s27.124-60.952 60.648-60.952c33.524 0 60.952 27.429 60.952 60.952s-27.429 60.952-60.952 60.952v0zM374.857 280.381c-33.524 0-60.648-27.429-60.648-60.952s27.124-60.952 60.648-60.952c33.524 0 60.952 27.429 60.952 60.952s-27.429 60.952-60.952 60.952v0zM349.257 646.095h370.286l-84.114-152.381h-213.943l-72.229 152.381zM635.429 432.762c22.857 0 42.971 12.495 53.333 31.39l109.105 197.79c11.276 20.114-3.352 45.105-26.514 45.105h-451.048l-28.648 60.952h-99.657v-60.952h60.952l109.714-231.314-41.143-74.362c-22.248-40.838 7.010-90.514 53.333-90.514h365.714v60.952h-365.714l33.524 60.952h227.048z" />
<glyph unicode="&#xe970;" glyph-name="zglos-blad" d="M512 768l-352-608h704l-352 608zM512 640.32l240.96-416.32h-481.888l240.928 416.32zM480 384h64v128h-64v-128zM480 256h64v64.032h-64v-64.032z" />
<glyph unicode="&#xe971;" glyph-name="pakiety" d="M938.138 913.818h-0.051c-0.102 0-0.205 0-0.307-0.051v0.051c-300.032-0.666-578.406-0.666-851.149 0.051-15.206 0.512-24.576-3.174-30.874-9.472h-0.051c-7.987-8.038-9.523-20.122-9.472-32.205v0c0.666-313.037 0.614-590.643-0.154-848.691-0.051-15.718 3.226-25.498 9.677-31.949v0c7.834-7.782 19.763-9.472 31.795-9.472h1.229c105.472 0.717 212.736 0.614 316.467 0.563l106.752-0.102c0 0 103.936 0.051 103.936 0.051 107.213 0.051 214.426 0.154 321.638-0.41 12.595-0.102 23.45 1.382 31.13 9.062 6.144 6.144 9.267 15.206 9.216 29.747-0.717 272.538-0.717 551.731-0.051 853.504 0.051 14.746-3.123 23.91-9.216 30.054h-0.051c-7.731 7.731-19.661 9.267-30.464 9.267v0zM535.962 426.752l109.773 0.051c8.55-0.102 17.459-0.102 26.112 1.997v0c12.902 3.123 21.709 9.165 26.47 17.562v0c4.608 8.192 5.325 18.227 1.587 30.003l-7.834 31.795c-1.075 12.493 2.765 24.166 10.854 32.922v0c7.936 8.602 18.995 13.312 31.078 13.312h0.307c12.083-0.102 23.091-4.813 30.976-13.414 8.090-8.858 11.93-20.685 10.854-33.331v0c-0.666-8.448-3.43-17.306-5.786-25.139-5.427-18.074-4.25-31.386 2.611-40.755s19.098-14.541 37.837-14.797v0c30.72-0.41 61.491-0.307 93.133-0.256 0 0 30.413 0.051 30.413 0.051s0-400.435 0-400.435c0.051 0-398.387 0-398.387 0v121.754c41.37-11.264 84.787-11.827 113.357 35.328v0c18.79 30.976 17.408 63.898-3.84 92.826v0c-32.41 44.134-75.315 40.448-109.517 28.979 0 0 0 121.549 0 121.549zM490.701 423.322v-12.595c0 0 5.12-5.12 5.12-5.12l-5.12 5.12v-75.366c-0.102-13.056-0.256-26.573 1.126-39.936v0c1.536-15.258 6.81-25.395 15.462-31.283 8.806-6.093 20.685-7.322 36.301-3.021l5.069 1.382c0 0-1.382-0.154-1.382-0.154l1.382 0.154c8.243 2.355 16.742 4.762 24.883 5.325v0c11.93 0.87 23.142-2.918 31.642-10.701 8.499-7.834 13.261-18.688 13.363-30.566v-0.051c0.154-12.288-4.454-23.501-13.056-31.59v0c-8.602-8.141-20.275-11.878-32.614-11.059-8.755 0.666-17.869 3.379-27.392 6.246v0c-17.152 5.069-30.003 3.789-39.27-3.021-9.318-6.81-14.541-18.688-15.002-36.762v0c-0.666-28.109-0.614-56.678-0.563-84.275v-38.912c0 0-400.998 0-400.998 0s0 396.39 0 396.39c0 0 122.982-0.051 122.982-0.051-11.315-39.066-12.595-80.691 30.413-111.514v0c28.262-20.224 70.451-19.558 98.099 1.485v0c43.162 32.87 39.475 75.725 28.109 109.875 0 0 97.792 0 121.446 0zM541.645 265.882h-0.051l0.666-4.915-0.614 4.915zM488.038 469.197h-19.814c-27.341 0.051-55.091 0.102-84.173-0.154-11.366-0.051-23.040-0.205-34.253-3.174-11.93-3.174-20.070-9.114-24.474-17.357v0c-4.352-8.192-4.864-18.125-0.922-29.594v0c2.765-8.192 6.195-18.995 7.578-29.747 1.638-12.237-1.69-24.013-9.37-33.126v0c-7.68-9.062-18.637-14.285-30.874-14.746-11.93-0.41-23.091 3.789-31.386 12.032v0c-8.243 8.090-12.595 18.995-12.339 30.72 0.256 9.83 3.072 20.070 5.171 26.88v0c5.99 19.712 4.966 33.331-1.997 42.906v0c-7.014 9.574-19.661 14.746-40.346 15.104-17.306 0.256-34.611 0.358-52.019 0.358l-68.608-0.154c0 0 0 401.92 0 401.92s398.080 0 398.080 0v-123.341c-42.65 11.315-84.378 11.264-113.408-35.123v0c-18.176-29.133-16.077-68.352 5.171-95.334v0c32.307-41.011 72.909-38.298 107.981-26.88 0 0 0-90.266 0-121.19zM533.248 471.194l0.051 18.995c0 0-5.12-5.069-5.12-5.069l5.12 5.12c0.051 26.778 0.051 53.965-0.154 81.152v5.171c0 10.803-0.051 21.914-2.611 32.614v0c-2.918 12.032-8.755 20.326-16.947 24.934v0c-8.090 4.557-18.022 5.222-29.491 1.536-11.366-3.635-21.606-6.81-32.102-8.038-11.315-1.28-22.477 1.997-31.283 9.472v0c-8.96 7.578-14.438 18.688-15.053 30.515v0c-0.614 11.981 3.686 23.706 11.827 32.051v0c7.885 8.090 18.688 12.442 30.003 12.134v0c10.291-0.256 21.043-3.379 31.642-6.4 17.101-4.915 29.901-3.43 39.117 3.43 9.318 6.861 14.438 18.842 14.694 36.966 0.512 30.822 0.41 61.696 0.307 93.235l-0.102 29.798c0 0 401.203 0 401.203 0s0-397.466 0-397.466c0 0-122.419 0-122.419 0 11.674 41.677 12.339 85.402-36.659 114.432-29.696 17.562-61.85 16.23-90.522-3.789v0c-43.776-30.618-42.086-71.936-30.106-110.797 0 0-97.69 0-121.395 0zM528.179 485.12c0 0 0 0 0 0v0z" />
<glyph unicode="&#xe972;" glyph-name="szukaj" d="M942.876-43.577l32.313 31.972-224.597 221.81c88.405 76.174 142.62 188.7 142.62 311.296 0 228.636-189.44 415.744-421.035 415.744-231.538 0-420.978-187.108-420.978-415.744 0-228.693 189.44-415.801 420.978-415.801 89.543 0 172.26 29.98 241.607 76.971 0 0 229.092-226.247 229.092-226.247zM93.753 521.5c0 205.312 167.026 370.176 375.012 370.176 207.929 0 375.012-164.864 375.012-370.176 0-205.369-167.083-370.233-375.012-370.233-207.986 0-375.012 164.864-375.012 370.233z" />
<glyph unicode="&#xe973;" glyph-name="telewizja" horiz-adv-x="1434" d="M1129.37 3.379c0 6.349-2.253 11.622-5.939 15.309-3.686 3.738-8.96 5.99-15.258 5.99h-803.738c-6.349 0-11.571-2.253-15.309-5.99-3.686-3.686-5.888-8.96-5.888-15.309s2.202-11.622 5.888-15.36c3.738-3.686 8.96-5.939 15.309-5.939h803.738c6.298 0 11.571 2.253 15.258 5.939 3.686 3.738 5.939 9.011 5.939 15.36zM1284.966 95.283c63.846 0 117.658 54.067 117.658 118.272v582.042c0 64.256-53.811 118.323-117.658 118.323h-1157.376c-63.846 0-117.606-54.067-117.606-118.323v-582.042c0-64.205 53.76-118.323 117.606-118.323l1157.376 0.051zM127.59 871.322h1157.376c42.138 0 75.264-33.28 75.264-75.725 0 0 0-582.042 0-582.042 0-42.394-33.126-75.725-75.264-75.725h-1157.376c-42.138 0-75.213 33.331-75.213 75.725v582.042c0 42.445 33.075 75.725 75.213 75.725zM835.021 464.282l-57.395 197.427h-75.264l99.942-291.584h68.403l99.942 291.584h-75.264l-60.365-197.427zM598.886 606.157h86.835v58.778h-238.541v-58.778h83.61c0 0 0-232.806 0-232.806h68.096v232.806z" />
<glyph unicode="&#xe974;" glyph-name="wideo" horiz-adv-x="1687" d="M1532.808-39.906c78.426 0 144.384 60.476 144.384 140.951v693.911c0 76.499-65.958 140.951-144.384 140.951h-1383.183c-78.366 0-144.324-64.452-144.324-140.951v-693.911c0-76.499 65.958-140.951 144.324-140.951h1383.183zM149.624 885.308h1383.183c51.923 0 92.762-39.695 92.762-90.353 0 0 0-693.911 0-693.911 0-50.658-40.84-90.353-92.762-90.353h-1383.183c-51.923 0-92.762 39.695-92.762 90.353v693.911c0 50.658 40.84 90.353 92.762 90.353zM742.46 268.499c2.65 0 5.301 0.12 7.288 0.783 1.928 0.602 3.494 1.687 4.638 3.132 0.482 0.602 0.904 1.265 1.205 1.988 0 0 313.705 172.092 313.705 172.092 10.36 5.18 15.059 15.721 15.059 20.781s-4.698 15.601-15.059 20.781c0 0-316.175 173.478-316.175 173.478-5.12 2.47-8.915 3.554-12.649 3.554s-7.529-1.084-12.529-3.494l-0.904-0.422-0.663-0.663c-5-4.939-9.698-9.999-9.698-19.757v-346.955c0-5.12 0.422-15.059 10.481-20.42 5.060-4.578 10.12-4.879 15.3-4.879zM768.241 595.817l238.291-132.337c0 0-238.291-128.723-238.291-128.723v261.060z" />
<glyph unicode="&#xe975;" glyph-name="wypozyczalnia" horiz-adv-x="1078" d="M960.35 785.273h-48.128c-11.318 15.36-29.965 25.546-51.2 25.546h-88.819c0 0 0 32.876 0 32.876 0 51.416-43.17 94.747-94.477 94.747h-534.69c-51.308 0-94.531-43.331-94.531-94.747v-791.39c0-51.416 43.224-94.747 94.531-94.747h534.69c36.595 0 68.123 20.318 82.459 51.092 0-0.054 100.837-0.054 100.837-0.054 31.636 0 58.152 22.636 63.272 51.092 0 0 38.589 0 38.589 0 36.163 0 66.506 28.079 66.506 61.548v602.867c-2.803 36.056-33.091 61.171-69.039 61.171zM735.987 52.305c0-32.714-25.654-58.422-58.26-58.422h-534.69c-32.66 0-58.314 25.708-58.314 58.422v791.39c0 32.714 25.654 58.422 58.314 58.422h534.69c32.606 0 58.26-25.708 58.26-58.422v-791.39zM888.778 70.144c0-12.611-13.043-22.69-27.756-22.69 0 0-90.112 0-90.112 0 0.054 0.162 0.108 0.377 0.162 0.539 0.647 2.048 1.132 4.204 1.132 6.845v719.656c0 0 88.819 0 88.819 0 14.713 0 27.756-10.078 27.756-22.69v-681.661zM924.995 748.948h37.888c17.085 0 30.289-10.24 30.289-25.223v-605.346h-2.587v5.389c0-14.983-13.15-25.223-30.235-25.223h-35.355v650.402z" />
<glyph unicode="&#xe976;" glyph-name="live-false" horiz-adv-x="1843" d="M396.672 302.208h186.624v-88.32h-292.992v526.848h106.368v-438.528zM649.728 213.888h106.368v526.848h-106.368v-526.848zM1016.832 358.656l88.704 384h118.656l-153.6-526.848h-110.592l-149.376 524.928h117.888l88.32-382.080zM1545.984 441.6h-165.888v-139.392h196.224v-88.32h-302.592v526.848h300.672v-87.936h-194.304v-124.416h165.888v-86.784zM26.112 955.008v-988.416h1790.976v988.416h-1790.976zM1754.112 28.416h-1666.176v864.768h1667.328l-1.152-864.768z" />
<glyph unicode="&#xe977;" horiz-adv-x="2048" d="M170.667 789.333h1706.667v-682.667h-1706.667v682.667z" />
<glyph unicode="&#xe978;" horiz-adv-x="2048" d="M29.013 936.107v-976.213h1989.973v976.213h-1989.973zM629.76 149.333h-373.76v597.333h136.107v-498.347h239.36l-1.707-98.987zM817.493 149.333h-112.64v597.333h112.64v-597.333zM1163.947 149.333h-130.987l-179.627 597.333h140.8l104.107-435.627 104.96 435.627h139.947l-179.2-597.333zM1792 149.333h-375.467v597.333h375.467v-101.12h-241.92v-142.080h205.653v-98.133h-205.653v-159.147h241.92v-96.853z" />
<glyph unicode="&#xe979;" glyph-name="pause" horiz-adv-x="878" d="M0-64h292.571v1024h-292.571v-1024zM585.143 960v-1024h292.571v1024h-292.571z" />
<glyph unicode="&#xe97a;" glyph-name="play-player" horiz-adv-x="768" d="M0 937.6v-985.6l761.6 492.8-761.6 492.8z" />
</font>
</defs>
</svg>
